img image001 image001 image001 image001 image001 image001 image001 image001 image001 image001 image001 image001 image001 image001 image001

Planets Sun Sun Sun
Статистика раздачи
Автор: Nickolas3434 | Размер: 629.08 МБ | Добавлен: 04 окт 2015
Раздают: 330    Качают: 4
Скачать торрент
Скачать торрент
Описание торрента

СообщениеДобавлено: 04 окт 2015 


Название: Химия нашего тела. Сахар
Год выпуска: 2014
Жанр: Документальный
Выпущено: Россия
Режиссер: Игорь Кириллов
Описание:
Когда-то он ценился наравне с золотом. В борьбе за него гибли люди и переделывались границы государств… Со временем этот белый порошок подчинил себе весь мир. Не героин, не кокаин и не морфий. Это - обыкновенный сахар.
Сахарная зависимость - сегодня это официальный диагноз. Есть даже клиника в Швеции, где лечат сахарных наркоманов. Они не могут жить без сладкого. Если их лишить сахара, у них наступает самая настоящая ломка...
Но как вырваться из сладкого плена? Ведь сахар повсюду: конфеты, выпечка, молочные продукты, газировка, соусы и даже… колбаса. У такой "сладкой жизни" горький привкус. Сахарный диабет, слепота, поражения сосудов, атеросклероз, депрессии и умственная отсталость - список болезней, вызванных сахаром, неуклонно растет. Под ударом не только взрослые, но и дети.
Каков механизм сахарной зависимости? Правда ли, что сахар – основная пища мозга? Бывает ли "полезный" сахар? Чем сахар можно заменить? В наших ли силах разомкнуть его "сладкие объятья"? Об этом - и не только - новый фильм из цикла "Химия нашего тела".
Качество: SATRip
Видео: 720x400 25.00fps 1800kbps
Аудио: 48000Hz stereo 192kbps
Продолжительность: 00:43:02

Общее
Полное имя : D:Himiya.Nashego.Tela-Sahar.SATRip.avi
Формат : AVI
Формат/Информация : Audio Video Interleave
Размер файла : 629 Мбайт
Продолжительность : 43 м.
Общий поток : 2001 Кбит/сек
Программа кодирования : VirtualDubMod 1.5.10.3 | www.virtualdub-fr.org || (build 2550/release)
Библиотека кодирования : VirtualDubMod build 2550/release
Видео
Идентификатор : 0
Формат : MPEG-4 Visual
Профиль формата : Advanced Simple@L5
Параметр BVOP формата : 2
Параметр QPel формата : Нет
Параметр GMC формата : Без точки перехода
Параметр матрицы формата : Default (H.263)
Идентификатор кодека : XVID
Идентификатор кодека/Подсказка : XviD
Продолжительность : 43 м.
Битрейт : 1800 Кбит/сек
Ширина : 720 пикселей
Высота : 400 пикселей
Соотношение сторон : 16:9
Частота кадров : 25,000 кадров/сек
Цветовое пространство : YUV
Субдискретизация насыщенности : 4:2:0
Битовая глубина : 8 бит
Тип развёртки : Прогрессивная
Метод сжатия : С потерями
Бит/(Пиксели*Кадры) : 0.250
Размер потока : 566 Мбайт (90%)
Библиотека кодирования : XviD 1.2.1 (UTC 2008-12-04)
Аудио
Идентификатор : 1
Формат : AC-3
Формат/Информация : Audio Coding 3
Расширение режима : CM (complete main)
Параметр Endianness формата : Big
Идентификатор кодека : 2000
Продолжительность : 43 м.
Вид битрейта : Постоянный
Битрейт : 192 Кбит/сек
Каналы : 2 канала
Расположение каналов : Front: L R
Частота : 48,0 КГц
Метод сжатия : С потерями
Размер потока : 60,3 Мбайт (10%)
Выравнивание : Разделение по промежуткам
Продолжительность промежутка : 40 мс. (1,00 видеокадр)
Время предзагрузки промежутка : 500 мс.

Релиз от:



   Похожие торренты   Торрент   Размер 
В этой теме нет новых непрочитанных сообщений. Химия нашего тела. Сахар (2015) HDTVRip от Files-х

450 | 38

554.35 МБ

В этой теме нет новых непрочитанных сообщений. Химия нашего тела. Витамины (2014) HDTVRip

300 | 10

595.43 МБ

В этой теме нет новых непрочитанных сообщений. Химия нашего тела [01-03] (2014-2015) HDTVRip от Generalfilm

182 | 59

2.11 ГБ

В этой теме нет новых непрочитанных сообщений. Химия тела / Body Chemistry (1990) DVDRip | A

101 | 26

1.37 ГБ

В этой теме нет новых непрочитанных сообщений. Химия тела / BBC. Body Chemistry [3 части] (2000) DVDRip

137 | 6

503.85 МБ

В этой теме нет новых непрочитанных сообщений. Без обмана: Горький сахар [10.11] (2014) SATRip

144 | 13

453.24 МБ

В этой теме нет новых непрочитанных сообщений. Сахар / Suiker (2010) SATRip от torrentfilm

365 | 4

67.77 МБ




Вы не можете начинать темы
Вы не можете отвечать на сообщения
Вы не можете редактировать свои сообщения
Вы не можете удалять свои сообщения
Вы не можете добавлять вложения

Перейти:  
Для Мосгорсуда, Роскомнадзора и рекламодателей: mosgorsud-torrent[собачка]yandex.ru
 Вход
ppkBB3cker v.2 © 2008-2014 @ PPK
[ Time : 1.609s | 16 Queries | GZIP : Off ]

Торрент трекер RUTOR.IN, Не можете зайти на rutor.org? Какой новый адрес рутор? Какое зеркало рутор? Не работает rutor.org и зеркала? Тогда наш торрент специально для вас. Rutor.in неофициальное зеркало rutor. В случае если у Вас заблокирован rutor или вдруг Вы не можете на него зайти, то Вы без труда сможете скачать бесплатно и без рекламы последние новинки кино, игр, сериалов и прочего у нас, на Rutor.in. Не нужно использовать прокси, чтобы зайти на рутор, достаточно воспользоваться нашим ресурсом. Все новые фильмы, игры, сериалы, книги и музыка за 2013 и 2014 годы через торрент бесплатно. Скачивайте фильмы в хорошем качестве, игры для пк, xbox, playstation без регистрации. У нас вы найдете новые Зарубежные сериалы и Русские сериалы 2013, 2014, 2015 годов. Оставайтесь с нами, качайте любимые фильмы, игры, сериалы, книги и музыку.