img image001 image001 image001 image001 image001 image001 image001 image001 image001 image001 image001 image001 image001 image001 image001

Planets Sun Sun Sun
Статистика раздачи
Автор: Nickolas3434 | Размер: 635.5 МБ | Добавлен: 05 окт 2015
Раздают: 507    Качают: 47
Скачать торрент
Скачать торрент
Описание торрента

СообщениеДобавлено: 05 окт 2015 


Информация о фильме
Название: Мировая информационная война
Год выхода: 2015
Режиссер: Пол Лайт
Ведущий: Мигель Фрэнсис
О фильме:
Автор фильма — журналист-исследователь Мигель Фрэнсис — пытается выяснить, кто и какими способами ведет информационную войну против России.
В ходе расследования он берет интервью у рядовых жителей Нью-Йорка и Лос-Анджелеса. Он встречается с известными зарубежными экспертами в области медиа: журналистом Робертом Пэрри, «разоблачителем» американских СМИ Алексом Джонсом и бывшим руководителем аппарата Колина Пауэлла – Лоренсом Вилкерсоном, которые помогут ему раскрыть секреты ведения информационных войн.
Страна: Россия
Продолжительность: 00:45:51
Перевод: Не требуется
Файл
Кодек: XviD
Качество: SATRip
Видео: 720x448, 25.00 fps, 1800 kbps
Звук: 48000 Hz, 128 kbps, 2 Channel

Общее
Полное имя : D:Mirovaya.informacionnaya.voina.2015.SATRip.avi
Формат : AVI
Формат/Информация : Audio Video Interleave
Размер файла : 636 Мбайт
Продолжительность : 45 м.
Общий поток : 1937 Кбит/сек
Программа кодирования : VirtualDubMod 1.5.10.3 | www.virtualdub-fr.org || (build 2550/release)
Библиотека кодирования : VirtualDubMod build 2550/release
Видео
Идентификатор : 0
Формат : MPEG-4 Visual
Профиль формата : Advanced Simple@L5
Параметр BVOP формата : 2
Параметр QPel формата : Нет
Параметр GMC формата : Без точки перехода
Параметр матрицы формата : Default (MPEG)
Идентификатор кодека : XVID
Идентификатор кодека/Подсказка : XviD
Продолжительность : 45 м.
Битрейт : 1800 Кбит/сек
Ширина : 720 пикселей
Высота : 448 пикселей
Соотношение сторон : 16:10
Частота кадров : 25,000 кадров/сек
Цветовое пространство : YUV
Субдискретизация насыщенности : 4:2:0
Битовая глубина : 8 бит
Тип развёртки : Прогрессивная
Метод сжатия : С потерями
Бит/(Пиксели*Кадры) : 0.223
Размер потока : 590 Мбайт (93%)
Библиотека кодирования : XviD 1.2.1 (UTC 2008-12-04)
Аудио
Идентификатор : 1
Формат : MPEG Audio
Версия формата : Version 1
Профиль формата : Layer 3
Режим : Joint stereo
Идентификатор кодека : 55
Идентификатор кодека/Подсказка : MP3
Продолжительность : 45 м.
Вид битрейта : Постоянный
Битрейт : 128 Кбит/сек
Каналы : 2 канала
Частота : 48,0 КГц
Метод сжатия : С потерями
Размер потока : 42,0 Мбайт (7%)
Выравнивание : Соединение по промежуткам
Продолжительность промежутка : 40 мс. (1,00 видеокадр)
Время предзагрузки промежутка : 504 мс.
Библиотека кодирования : LAME3.99r
Настройки программы : -m j -V 4 -q 2 -lowpass 17 -b 128

Релиз от:



   Похожие торренты   Торрент   Размер 
В этой теме нет новых непрочитанных сообщений. Говорит Украина - Информационная война России [07.03] (2014) SATRip

1079 | 353

995.73 МБ

В этой теме нет новых непрочитанных сообщений. Познавательное ТВ: Как ведётся информационная война? (2012) HD 720p

0 | 2

597.06 МБ

В этой теме нет новых непрочитанных сообщений. Вторая мировая. Случайная война [01-05 из 05] (2009) SATRip

303 | 4

2.64 ГБ

В этой теме нет новых непрочитанных сообщений. Мировая война мертвецов: Восстание павших / World War Dead Rise of the Fallen (2015) HDRip | L1

1537 | 202

1.37 ГБ

В этой теме нет новых непрочитанных сообщений. Мировая война мертвецов: Восстание павших / World War Dead: Rise of the Fallen (2015) BDRip 1080р | L1

223 | 67

5.6 ГБ

В этой теме нет новых непрочитанных сообщений. Макс Брукс - Мировая война Z (2006) MP3

9 | 4

1.08 ГБ

В этой теме нет новых непрочитанных сообщений. Мировая война / World War (2008) WEB-DL 720 от SuperMin

155 | 17

144.1 МБ




Вы не можете начинать темы
Вы не можете отвечать на сообщения
Вы не можете редактировать свои сообщения
Вы не можете удалять свои сообщения
Вы не можете добавлять вложения

Перейти:  
Для Мосгорсуда, Роскомнадзора и рекламодателей: mosgorsud-torrent[собачка]yandex.ru
 Вход
ppkBB3cker v.2 © 2008-2014 @ PPK
[ Time : 0.389s | 16 Queries | GZIP : Off ]

Торрент трекер RUTOR.IN, Не можете зайти на rutor.org? Какой новый адрес рутор? Какое зеркало рутор? Не работает rutor.org и зеркала? Тогда наш торрент специально для вас. Rutor.in неофициальное зеркало rutor. В случае если у Вас заблокирован rutor или вдруг Вы не можете на него зайти, то Вы без труда сможете скачать бесплатно и без рекламы последние новинки кино, игр, сериалов и прочего у нас, на Rutor.in. Не нужно использовать прокси, чтобы зайти на рутор, достаточно воспользоваться нашим ресурсом. Все новые фильмы, игры, сериалы, книги и музыка за 2013 и 2014 годы через торрент бесплатно. Скачивайте фильмы в хорошем качестве, игры для пк, xbox, playstation без регистрации. У нас вы найдете новые Зарубежные сериалы и Русские сериалы 2013, 2014, 2015 годов. Оставайтесь с нами, качайте любимые фильмы, игры, сериалы, книги и музыку.