img image001 image001 image001 image001 image001 image001 image001 image001 image001 image001 image001 image001 image001 image001 image001

Planets Sun Sun Sun
Статистика раздачи
Автор: Nickolas3434 | Размер: 469.84 МБ | Добавлен: 05 окт 2015
Раздают: 19    Качают: 9
Скачать торрент
Скачать торрент
Описание торрента

СообщениеДобавлено: 05 окт 2015 


О фильме:
В гостях у Сергея Медведева руководитель энергетической и арктической программ «Гринпис России» Владимир Чупров.В программе рассматривались перспективы освоения Арктики Россией.
Год выпуска: 2015
Страна: Россия
Студия: Телеканал "Дождь"
Жанр: Интервью
Продолжительность: 00:38:51
Тип релиза: HDTVRip
Контейнер: AVI
Видео: DivX 720х400 16:9 1 533 Kbps 25.000 fps
Аудио: Мр3 128 Kbps 44.1 KHz 2 channels
Medvedev_29.09.15.avi
Format : AVI
Format/Info : Audio Video Interleave
File size : 470 MiB
Duration : 38mn 51s
Overall bit rate : 1 691 Kbps
Video
ID : 0
Format : MPEG-4 Visual
Codec ID : DIV3
Codec ID/Hint : DivX 3 Low
Duration : 38mn 51s
Bit rate : 1 553 Kbps
Width : 720 pixels
Height : 400 pixels
Display aspect ratio : 16:9
Frame rate : 25.000 fps
Color space : YUV
Chroma subsampling : 4:2:0
Bit depth : 8 bits
Compression mode : Lossy
Bits/(Pixel*Frame) : 0.216
Stream size : 432 MiB (92%)
Audio
ID : 1
Format : MPEG Audio
Format version : Version 1
Format profile : Layer 3
Mode : Joint stereo
Mode extension : MS Stereo
Codec ID : 55
Codec ID/Hint : MP3
Duration : 38mn 51s
Source duration : 38mn 51s
Bit rate mode : Constant
Bit rate : 128 Kbps
Channel(s) : 2 channels
Sampling rate : 44.1 KHz
Compression mode : Lossy
Stream size : 35.6 MiB (8%)
Alignment : Aligned on interleaves
Interleave, duration : 40 ms (1.00 video frame)
Writing library : LAME3.99.5



   Похожие торренты   Торрент   Размер 
В этой теме нет новых непрочитанных сообщений. Медведев Владимир - Мир электронного рабства (2012) MP3

13 | 3

277.6 МБ

В этой теме нет новых непрочитанных сообщений. Медведев - Григорий Явлинский [24.11] (2015) HDTVRip 720p

63 | 0

474.47 МБ

В этой теме нет новых непрочитанных сообщений. Медведев - Алексей Малашенко. Ситуация в Сирии [08.09] (2015) HDTVRip

57 | 1

328.23 МБ

В этой теме нет новых непрочитанных сообщений. Медведев - Владислав Белов. 25 лет объединения Германии [03.10] (2015) HDTVRip

20 | 6

615.56 МБ

В этой теме нет новых непрочитанных сообщений. Медведев - Олег Будницкий.150 лет терроризму в России. [17.11] (2015) HDTVRip 720p

29 | 8

506.06 МБ

В этой теме нет новых непрочитанных сообщений. Медведев - Олег Хлевнюк. Роль Сталина в истории России [15.12] (2015) HDTVRip 720p

22 | 3

500.43 МБ

В этой теме нет новых непрочитанных сообщений. Военная приемка. Холодные войны. Оружие для Арктики (2015) SATRip

491 | 33

540.99 МБ




Вы не можете начинать темы
Вы не можете отвечать на сообщения
Вы не можете редактировать свои сообщения
Вы не можете удалять свои сообщения
Вы не можете добавлять вложения

Перейти:  
Для Мосгорсуда, Роскомнадзора и рекламодателей: mosgorsud-torrent[собачка]yandex.ru
 Вход
ppkBB3cker v.2 © 2008-2014 @ PPK
[ Time : 0.019s | 14 Queries | GZIP : Off ]

Торрент трекер RUTOR.IN, Не можете зайти на rutor.org? Какой новый адрес рутор? Какое зеркало рутор? Не работает rutor.org и зеркала? Тогда наш торрент специально для вас. Rutor.in неофициальное зеркало rutor. В случае если у Вас заблокирован rutor или вдруг Вы не можете на него зайти, то Вы без труда сможете скачать бесплатно и без рекламы последние новинки кино, игр, сериалов и прочего у нас, на Rutor.in. Не нужно использовать прокси, чтобы зайти на рутор, достаточно воспользоваться нашим ресурсом. Все новые фильмы, игры, сериалы, книги и музыка за 2013 и 2014 годы через торрент бесплатно. Скачивайте фильмы в хорошем качестве, игры для пк, xbox, playstation без регистрации. У нас вы найдете новые Зарубежные сериалы и Русские сериалы 2013, 2014, 2015 годов. Оставайтесь с нами, качайте любимые фильмы, игры, сериалы, книги и музыку.