img image001 image001 image001 image001 image001 image001 image001 image001 image001 image001 image001 image001 image001 image001 image001

Planets Sun Sun Sun
Статистика раздачи
Автор: Nickolas3434 | Размер: 615.56 МБ | Добавлен: 08 окт 2015
Раздают: 14    Качают: 5
Скачать торрент
Скачать торрент
Описание торрента

СообщениеДобавлено: 08 окт 2015 


О фильме:
В гостях у Сергея Медведева заместитель директора Института Европы РАН, руководитель Центра германских исследований Института Европы​ Владислав Белов. Поговорили о 25-летии объединения Германии.
Год выпуска: 2015
Страна: Россия
Студия: Телеканал "Дождь"
Жанр: Интервью
Продолжительность: 00:34:53
Тип релиза: HDTVRip
Контейнер: AVI
Видео: DivX 720х400 16:9 2 326 Kbps 25.000 fps
Аудио: Мр3 128 Kbps 44.1 KHz 2 channels
Medvedev_03.10.15.avi
Format : AVI
Format/Info : Audio Video Interleave
File size : 616 MiB
Duration : 34mn 53s
Overall bit rate : 2 467 Kbps

Video
ID : 1
Format : MPEG-4 Visual
Codec ID : DIV3
Codec ID/Hint : DivX 3 Low
Duration : 34mn 53s
Bit rate : 2 326 Kbps
Width : 720 pixels
Height : 400 pixels
Display aspect ratio : 16:9
Frame rate : 25.000 fps
Color space : YUV
Chroma subsampling : 4:2:0
Bit depth : 8 bits
Compression mode : Lossy
Bits/(Pixel*Frame) : 0.323
Stream size : 581 MiB (94%)

Audio
ID : 0
Format : MPEG Audio
Format version : Version 1
Format profile : Layer 3
Mode : Joint stereo
Mode extension : MS Stereo
Codec ID : 55
Codec ID/Hint : MP3
Duration : 5s 9ms
Bit rate mode : Constant
Bit rate : 128 Kbps
Channel(s) : 2 channels
Sampling rate : 44.1 KHz
Compression mode : Lossy
Stream size : 31.9 MiB (5%)
Alignment : Aligned on interleaves
Interleave, duration : 40 ms (1.00 video frame)
Writing library : LAME3.99.5



   Похожие торренты   Торрент   Размер 
В этой теме нет новых непрочитанных сообщений. Медведев - Григорий Явлинский [24.11] (2015) HDTVRip 720p

63 | 0

474.47 МБ

В этой теме нет новых непрочитанных сообщений. Медведев - Владимир Чупров. Освоение Арктики [29.09] (2015) HDTVRip

14 | 5

469.84 МБ

В этой теме нет новых непрочитанных сообщений. Медведев - Алексей Малашенко. Ситуация в Сирии [08.09] (2015) HDTVRip

57 | 1

328.23 МБ

В этой теме нет новых непрочитанных сообщений. Медведев - Олег Будницкий.150 лет терроризму в России. [17.11] (2015) HDTVRip 720p

29 | 8

506.06 МБ

В этой теме нет новых непрочитанных сообщений. Медведев - Олег Хлевнюк. Роль Сталина в истории России [15.12] (2015) HDTVRip 720p

22 | 3

500.43 МБ

В этой теме нет новых непрочитанных сообщений. Медведев - Георгий Толорая.Северная Корея [01.09] (2015) DVB

34 | 8

864.07 МБ

В этой теме нет новых непрочитанных сообщений. Медведев - Алексей Зубов [26.05.2015] (2015) TVRip-AVC

33 | 5

392.1 МБ




Вы не можете начинать темы
Вы не можете отвечать на сообщения
Вы не можете редактировать свои сообщения
Вы не можете удалять свои сообщения
Вы не можете добавлять вложения

Перейти:  
Для Мосгорсуда, Роскомнадзора и рекламодателей: mosgorsud-torrent[собачка]yandex.ru
 Вход
ppkBB3cker v.2 © 2008-2014 @ PPK
[ Time : 0.041s | 15 Queries | GZIP : Off ]

cron