img image001 image001 image001 image001 image001 image001 image001 image001 image001 image001 image001 image001 image001 image001 image001

Planets Sun Sun Sun
Статистика раздачи
Автор: Nickolas3434 | Размер: 494.59 МБ | Добавлен: 08 окт 2015
Раздают: 49    Качают: 3
Скачать торрент
Скачать торрент
Описание торрента

СообщениеДобавлено: 08 окт 2015 


О фильме:
В гостях у Натальи Шанецкой глава Департамента психологии ВШЭ Василий Ключарев и доцент Факультета экономических наук ВШЭ Ксения Паниди. Поговорили о том, как можно воздействовать на решения человека с помощью магнитных волн или запаха. Можно ли это применять в жизни на больших группах. Об «эффекте владения» (или инерции), когда человек не склонен менять то, что у него есть, даже на лучший вариант. Об «эффекте паралича», когда вариантов варенья слишком много, и мы не покупаем ничего. И о том, как россияне порицают тех, кто выделяется из толпы, тогда как в протестантских странах судят только тех, кто нарушает законы.
Год выпуска: 2015
Страна: Россия
Студия: Телеканал "Дождь"
Жанр: Интервью
Продолжительность: 00:41:21
Тип релиза: HDTVRip
Контейнер: AVI
Видео: DivX 720х400 16:9 1 534 Kbps 25.000 fps
Аудио: Мр3 128 Kbps 44.1 KHz 2 channels
/Shaneckaya_14.09.15.avi
Format : AVI
Format/Info : Audio Video Interleave
File size : 495 MiB
Duration : 41mn 21s
Overall bit rate : 1 672 Kbps

Video
ID : 0
Format : MPEG-4 Visual
Codec ID : DIV3
Codec ID/Hint : DivX 3 Low
Duration : 41mn 21s
Bit rate : 1 534 Kbps
Width : 720 pixels
Height : 400 pixels
Display aspect ratio : 16:9
Frame rate : 25.000 fps
Color space : YUV
Chroma subsampling : 4:2:0
Bit depth : 8 bits
Compression mode : Lossy
Bits/(Pixel*Frame) : 0.213
Stream size : 454 MiB (92%)

Audio
ID : 1
Format : MPEG Audio
Format version : Version 1
Format profile : Layer 3
Mode : Joint stereo
Mode extension : MS Stereo
Codec ID : 55
Codec ID/Hint : MP3
Duration : 41mn 21s
Bit rate mode : Constant
Bit rate : 128 Kbps
Channel(s) : 2 channels
Sampling rate : 44.1 KHz
Compression mode : Lossy
Stream size : 37.9 MiB (8%)
Alignment : Aligned on interleaves
Interleave, duration : 40 ms (1.00 video frame)
Writing library : LAME3.99.5




   Похожие торренты   Торрент   Размер 
В этой теме нет новых непрочитанных сообщений. Шанецкая. Ульрике Геро - Кризис в Евросоюзе [02.11] (2015) HDTVRip 720p

22 | 3

288.85 МБ

В этой теме нет новых непрочитанных сообщений. Шанецкая - Сергей Белоусов. Роботы, искусственный интеллект и 3D принтеры. [19.10] (2015) HDTVRip 720p

8 | 4

476.82 МБ

В этой теме нет новых непрочитанных сообщений. Шанецкая. Олег Мельников - Как устроен бизнес попрошайничества в России. [16.11] (2015) HDTVRip 720p

49 | 2

505.31 МБ

В этой теме нет новых непрочитанных сообщений. Как работает Вселенная. Чёрные дыры / How the Universe Works (2010) HDTVRip от boss89

2 | 3

662.58 МБ

В этой теме нет новых непрочитанных сообщений. Обыкновенные зомби. Как работает ложь (2015) WEB-DLRip

27 | 4

1.19 ГБ

В этой теме нет новых непрочитанных сообщений. Обыкновенные зомби. Как работает ложь (2015) SATRip

262 | 18

1.18 ГБ

В этой теме нет новых непрочитанных сообщений. Обыкновенные зомби. Как работает ложь (2015) WEB-DLRip 720р

69 | 3

1.92 ГБ




Вы не можете начинать темы
Вы не можете отвечать на сообщения
Вы не можете редактировать свои сообщения
Вы не можете удалять свои сообщения
Вы не можете добавлять вложения

Перейти:  
Для Мосгорсуда, Роскомнадзора и рекламодателей: mosgorsud-torrent[собачка]yandex.ru
 Вход
ppkBB3cker v.2 © 2008-2014 @ PPK
[ Time : 0.024s | 14 Queries | GZIP : Off ]

Торрент трекер RUTOR.IN, Не можете зайти на rutor.org? Какой новый адрес рутор? Какое зеркало рутор? Не работает rutor.org и зеркала? Тогда наш торрент специально для вас. Rutor.in неофициальное зеркало rutor. В случае если у Вас заблокирован rutor или вдруг Вы не можете на него зайти, то Вы без труда сможете скачать бесплатно и без рекламы последние новинки кино, игр, сериалов и прочего у нас, на Rutor.in. Не нужно использовать прокси, чтобы зайти на рутор, достаточно воспользоваться нашим ресурсом. Все новые фильмы, игры, сериалы, книги и музыка за 2013 и 2014 годы через торрент бесплатно. Скачивайте фильмы в хорошем качестве, игры для пк, xbox, playstation без регистрации. У нас вы найдете новые Зарубежные сериалы и Русские сериалы 2013, 2014, 2015 годов. Оставайтесь с нами, качайте любимые фильмы, игры, сериалы, книги и музыку.