img image001 image001 image001 image001 image001 image001 image001 image001 image001 image001 image001 image001 image001 image001 image001

Planets Sun Sun Sun
Статистика раздачи
Автор: Nickolas3434 | Размер: 2.78 ГБ | Добавлен: 08 окт 2015
Раздают: 57    Качают: 4
Скачать торрент
Скачать торрент
Описание торрента

СообщениеДобавлено: 08 окт 2015 

Джими Хендрикс / Jimi Hendrix: Hear My Train a Comin'


#77
Дата/Год выпуска: 2013
Страна: США | Eagle Rock Entertainment | WNET Channel 13 New
Жанр: Документальный
Продолжительность: 1:30:47
Перевод: Профессиональный (многоголосый закадровый) | "Эй Би Видео" по заказу "1 Канала"
Режиссер: Боб Смитон / Bob Smeaton

Описание: Фильм от обладателя двух "Грэмми" Боба Смитона дарит зрителям не демонстрировавшиеся концертные видеозаписи, любительские кадры самого Хендрикса и барабанщика Митча Митчелла и обширный архив фотографий, рисунков и семейной переписки. Эти материалы позволяют взглянуть на личность и талант артиста под другим углом.




Автор рипа: lrn
Автор записи: Alexin29
Сэмпл: sendfile

качество: HDTVRip 720p
формат: MKV
Видео: 1280x720 (16:9), 25,000 fps, H264, ~4000 kbps avg, ~0.174 bit/pixel
Аудио: 48 kHz, AC3 Dolby Digital, 3/2 (L,C,R,l,r) + LFE ch, ~384.00 kbps avg

General
Unique ID : 204451769294932944516775101395792767546 (0x99CFFA7CCCF4ED9AA3DCE97808B32A3A)
Complete name : E:uTorrent.TempTempJimi.Hendrix.Hear.My.Train.a.Comin.2013.HDTV.720p.x264-RUS-lrn.mkv
Format : Matroska
Format version : Version 4 / Version 2
File size : 2.78 GiB
Duration : 1h 30mn
Overall bit rate : 4 385 Kbps
Movie name : Jimi.Hendrix.Hear.My.Train.a.Comin.2013.HDTV.720p.x264-RUS-lrn
Encoded date : UTC 2010-02-22 21:41:31
Writing application : mkvmerge v5.9.0 ('On The Loose') built on Dec 9 2012 15:37:01
Writing library : libebml v1.3.0 + libmatroska v1.4.0
DURATION : 01:30:47.320000000
NUMBER_OF_FRAMES : 136183
NUMBER_OF_BYTES : 2723131350
_STATISTICS_WRITING_APP : mkvmerge v7.7.0 ('Six Voices') 32bit built on Feb 28 2015 23:23:00
_STATISTICS_WRITING_DATE_UT : 2015-10-06 09:52:55
_STATISTICS_TAGS : BPS DURATION NUMBER_OF_FRAMES NUMBER_OF_BYTES

Video
ID : 1
Format : AVC
Format/Info : Advanced Video Codec
Format profile : High@L4.1
Format settings, CABAC : Yes
Format settings, ReFrames : 8 frames
Codec ID : V_MPEG4/ISO/AVC
Duration : 1h 30mn
Bit rate : 4 000 Kbps
Width : 1 280 pixels
Height : 720 pixels
Display aspect ratio : 16:9
Frame rate mode : Constant
Frame rate : 25.000 fps
Color space : YUV
Chroma subsampling : 4:2:0
Bit depth : 8 bits
Scan type : Progressive
Bits/(Pixel*Frame) : 0.174
Stream size : 2.48 GiB (89%)
Writing library : x264 core 146 r2538 121396c
Encoding settings : cabac=1 / ref=8 / deblock=1:-3:-3 / analyse=0x3:0x133 / me=umh / subme=9 / psy=1 / psy_rd=1.00:0.00 / mixed_ref=1 / me_range=32 / chroma_me=1 / trellis=2 / 8x8dct=1 / cqm=0 / deadzone=21,11 / fast_pskip=1 / chroma_qp_offset=-2 / threads=12 / lookahead_threads=2 / sliced_threads=0 / nr=0 / decimate=1 / interlaced=0 / bluray_compat=0 / constrained_intra=0 / bframes=8 / b_pyramid=2 / b_adapt=2 / b_bias=0 / direct=3 / weightb=1 / open_gop=0 / weightp=2 / keyint=250 / keyint_min=25 / scenecut=40 / intra_refresh=0 / rc_lookahead=50 / rc=2pass / mbtree=1 / bitrate=4000 / ratetol=1.0 / qcomp=0.60 / qpmin=0 / qpmax=69 / qpstep=4 / cplxblur=20.0 / qblur=0.5 / vbv_maxrate=62500 / vbv_bufsize=78125 / nal_hrd=none / filler=0 / ip_ratio=1.40 / aq=1:1.00
Default : Yes
Forced : No

Audio
ID : 2
Format : AC-3
Format/Info : Audio Coding 3
Mode extension : CM (complete main)
Format settings, Endianness : Big
Codec ID : A_AC3
Duration : 1h 30mn
Bit rate mode : Constant
Bit rate : 384 Kbps
Channel(s) : 6 channels
Channel positions : Front: L C R, Side: L R, LFE
Sampling rate : 48.0 KHz
Compression mode : Lossy
Delay relative to video : 100ms
Stream size : 249 MiB (9%)
Language : Russian
Default : Yes
Forced : No
raw [info]: 1280x720p 1:1 @ 25/1 fps (cfr)
x264 [info]: using SAR=1/1
x264 [info]: using cpu capabilities: MMX2 SSE2Fast SSSE3 SSE4.2 AVX
x264 [info]: profile High, level 4.1
x264 [info]: frame I:829 Avg QP:15.04 size: 89840
x264 [info]: frame P:35913 Avg QP:18.15 size: 32878
x264 [info]: frame B:99441 Avg QP:19.78 size: 14761
x264 [info]: consecutive B-frames: 2.8% 5.7% 5.4% 61.9% 7.6% 11.2% 1.9% 3.1% 0.5%
x264 [info]: mb I I16..4: 8.7% 79.6% 11.6%
x264 [info]: mb P I16..4: 2.3% 17.1% 1.0% P16..4: 40.8% 16.8% 10.2% 0.3% 0.1% skip:11.4%
x264 [info]: mb B I16..4: 0.2% 2.6% 0.1% B16..8: 35.6% 10.7% 2.1% direct: 9.3% skip:39.4% L0:44.3% L1:45.4% BI:10.3%
x264 [info]: 8x8 transform intra:84.8% inter:74.0%
x264 [info]: direct mvs spatial:97.9% temporal:2.1%
x264 [info]: coded y,uvDC,uvAC intra: 80.2% 65.0% 35.2% inter: 31.1% 26.5% 2.0%
x264 [info]: i16 v,h,dc,p: 38% 14% 7% 41%
x264 [info]: i8 v,h,dc,ddl,ddr,vr,hd,vl,hu: 11% 8% 6% 8% 13% 15% 13% 13% 12%
x264 [info]: i4 v,h,dc,ddl,ddr,vr,hd,vl,hu: 13% 7% 4% 9% 15% 16% 13% 12% 11%
x264 [info]: i8c dc,h,v,p: 50% 17% 16% 18%
x264 [info]: Weighted P-Frames: Y:5.7% UV:2.1%
x264 [info]: ref P L0: 47.5% 9.9% 16.5% 7.5% 5.8% 4.9% 4.2% 3.1% 0.5% 0.0%
x264 [info]: ref B L0: 73.6% 12.0% 6.2% 3.2% 2.6% 1.6% 0.8%
x264 [info]: ref B L1: 94.1% 5.9%
x264 [info]: kb/s:3999.22
encoded 136183 frames, 14.50 fps, 3999.22 kb/s



   Похожие торренты   Торрент   Размер 
В этой теме нет новых непрочитанных сообщений. Джими Хендрикс / Jimi Hendrix: Hear My Train a Comin' (2013) HDTVRip-AVC | Эй Би Видео

40 | 2

1.2 ГБ

В этой теме нет новых непрочитанных сообщений. Куртис Найт - Jimi Hendrix / Куртис Найт - Jimi / An Intimate Biography of Jimi Hendrix / Джими Хендрикс (1975) TXT

4 | 4

376.58 КБ

В этой теме нет новых непрочитанных сообщений. Джими Хендрикс Неоконченная История / Jimi Hendrix: The Uncut Story (2004) BDRip

4 | 3

1.4 ГБ

В этой теме нет новых непрочитанных сообщений. Jimi Hendrix - Experience Hendrix: The Best of Jimi Hendrix (1998) FLAC

102 | 13

489.26 МБ

В этой теме нет новых непрочитанных сообщений. Jimi Hendrix - The Jimi Hendrix Experience [4CD] (2000) FLAC

13 | 10

1.57 ГБ

В этой теме нет новых непрочитанных сообщений. Джими Хендрикс / All Is by My Side (2013) DVDRip | Лицензия

1268 | 55

2.05 ГБ

В этой теме нет новых непрочитанных сообщений. Джими Хендрикс / All Is by My Side (2013) DVD9 от amazon | P | лицензия

233 | 25

5.75 ГБ




Вы не можете начинать темы
Вы не можете отвечать на сообщения
Вы не можете редактировать свои сообщения
Вы не можете удалять свои сообщения
Вы не можете добавлять вложения

Перейти:  
Для Мосгорсуда, Роскомнадзора и рекламодателей: mosgorsud-torrent[собачка]yandex.ru
 Вход
ppkBB3cker v.2 © 2008-2014 @ PPK
[ Time : 0.043s | 17 Queries | GZIP : Off ]

Торрент трекер RUTOR.IN, Не можете зайти на rutor.org? Какой новый адрес рутор? Какое зеркало рутор? Не работает rutor.org и зеркала? Тогда наш торрент специально для вас. Rutor.in неофициальное зеркало rutor. В случае если у Вас заблокирован rutor или вдруг Вы не можете на него зайти, то Вы без труда сможете скачать бесплатно и без рекламы последние новинки кино, игр, сериалов и прочего у нас, на Rutor.in. Не нужно использовать прокси, чтобы зайти на рутор, достаточно воспользоваться нашим ресурсом. Все новые фильмы, игры, сериалы, книги и музыка за 2013 и 2014 годы через торрент бесплатно. Скачивайте фильмы в хорошем качестве, игры для пк, xbox, playstation без регистрации. У нас вы найдете новые Зарубежные сериалы и Русские сериалы 2013, 2014, 2015 годов. Оставайтесь с нами, качайте любимые фильмы, игры, сериалы, книги и музыку.