img image001 image001 image001 image001 image001 image001 image001 image001 image001 image001 image001 image001 image001 image001 image001

Planets Sun Sun Sun
Статистика раздачи
Автор: Nickolas3434 | Размер: 1.01 ГБ | Добавлен: 08 окт 2015
Раздают: 100    Качают: 3
Скачать торрент
Скачать торрент
Описание торрента

СообщениеДобавлено: 08 окт 2015 



Страна: Россия
Жанр: Интервью
Продолжительность: 01:00:01
Год выпуска: 2015 г.

Описание:
В гостях у Владимира Глазунова певец Ярослав Евдокимов.
Качество: DVB
Контейнер: MPG
Видео кодек: MPEG-2
Аудио кодек: MP2
Видео: MPEG-2 720x576 4:3 2 166 Kbps 25.000 fps
Аудио: MP2 192 Kbps 48.0 KHz 2 channels
General
Complete name : G:Evdokimov_06.10.15.mpg
Format : MPEG-PS
File size : 1.01 GiB
Duration : 1h 0mn
Overall bit rate mode : Variable
Overall bit rate : 2 406 Kbps
Writing library : (dvd5: Jun 16 2014)

Video
ID : 224 (0xE0)
Format : MPEG Video
Format version : Version 2
Format profile : Main@Main
Format settings, BVOP : Yes
Format settings, Matrix : Custom
Format settings, GOP : Variable
Format settings, picture st : Frame
Duration : 1h 0mn
Bit rate mode : Variable
Bit rate : 2 166 Kbps
Maximum bit rate : 8 000 Kbps
Width : 720 pixels
Height : 576 pixels
Display aspect ratio : 4:3
Frame rate : 25.000 fps
Standard : PAL
Color space : YUV
Chroma subsampling : 4:2:0
Bit depth : 8 bits
Scan type : Interlaced
Scan order : Top Field First
Compression mode : Lossy
Bits/(Pixel*Frame) : 0.209
Time code of first frame : 00:00:00:00
Time code source : Group of pictures header
GOP, Open/Closed : Open
Stream size : 930 MiB (90%)
Writing library : (dvd5: Jun 16 2014)

Audio
ID : 192 (0xC0)
Format : MPEG Audio
Format version : Version 1
Format profile : Layer 2
Duration : 1h 0mn
Bit rate mode : Constant
Bit rate : 192 Kbps
Channel(s) : 2 channels
Sampling rate : 48.0 KHz
Compression mode : Lossy
Stream size : 82.4 MiB (8%)



   Похожие торренты   Торрент   Размер 
В этой теме нет новых непрочитанных сообщений. Ярослав Евдокимов - Дискография (1988-2009) MP3

302 | 33

964.12 МБ

В этой теме нет новых непрочитанных сообщений. «Рождённые в СССР» - Татьяна Иванова [28.09] (2015) IPTVRip-AVC

25 | 9

797.99 МБ

В этой теме нет новых непрочитанных сообщений. «Рождённые в СССР» - Екатерина Болдышева и Алексей Горбашов [10.12] (2015) DVB

91 | 11

826.69 МБ

В этой теме нет новых непрочитанных сообщений. Рожденные в СССР - Алексей Глызин [22.06] (2017) DVB

17 | 5

1.28 ГБ

В этой теме нет новых непрочитанных сообщений. Рожденные в СССР - Сергей Беликов [29.05] (2017) DVB

8 | 1

976.04 МБ

В этой теме нет новых непрочитанных сообщений. Рожденные в СССР - Группа «Лицей» [05.04] (2017) DVB

19 | 6

1.45 ГБ

В этой теме нет новых непрочитанных сообщений. Рожденные в СССР - Сергей Любавин [07.04] (2016) DVB

0 | 0

804.81 МБ




Вы не можете начинать темы
Вы не можете отвечать на сообщения
Вы не можете редактировать свои сообщения
Вы не можете удалять свои сообщения
Вы не можете добавлять вложения

Перейти:  
Для Мосгорсуда, Роскомнадзора и рекламодателей: mosgorsud-torrent[собачка]yandex.ru
 Вход
ppkBB3cker v.2 © 2008-2014 @ PPK
[ Time : 0.049s | 16 Queries | GZIP : Off ]

cron