img image001 image001 image001 image001 image001 image001 image001 image001 image001 image001 image001 image001 image001 image001 image001

Planets Sun Sun Sun
Статистика раздачи
Автор: Nickolas3434 | Размер: 1.25 ГБ | Добавлен: 11 окт 2015
Раздают: 102    Качают: 3
Скачать торрент
Скачать торрент
Описание торрента

СообщениеДобавлено: 11 окт 2015 



Информация о фильме
Название: Любовь из Поднебесной. Последнее пророчество святой Матроны
Год выхода: 2015
Жанр: Документальный

О фильме:
К Матроне Московской страждущие обращаются в основном за исцелением, и со многими происходит то, что иначе как чудом не называют даже специалисты. А вот о прорицаниях Великой Святой известно гораздо меньше. Многие предсказания блаженной Матроны касаются событий сегодняшних дней. В коротких и не всегда понятных высказываниях святой Матроны, сделанных 70 лет назад, сегодня многие находят ответы на актуальные вопросы современного мира. Напрямую это касается и вооруженного конфликта на Ближнем востоке и событий на Украине, и напряженных отношений России с западной Европой и США. Анализом этих предсказаний сейчас занимаются серьезные исследовательские лаборатории по всему миру. Основываясь зачастую только лишь на интерпретациях аллегорий, изреченных Матроной Московской, специалисты иностранных разведподразделений готовят доклады для Пентагона и других западных спецслужб, забывая о славянском менталитете провидицы. Отечественные лингвисты и филологи, приглашенные для участия в программе, озвучат свою версию расшифровки изречений, сделанных блаженной Матроной, и назовут основные ошибки западных коллег. А то, что к предсказаниям Святой Матроны Московской стоит относиться серьезно, сегодня ни у кого сомнений уже не вызывает.
Страна: Россия
Продолжительность: ~01:32:10
Перевод: Не требуется

Файл
Кодек: XviD
Качество: SATRip
Видео: 1800 Кбит/с, 704x448
Звук: МР3, 2 ch, 128 Кбит/с


Общее
Полное имя : D:Poslednee.prorochestvo.Svyatoi.Matrony.2015.SATRip.avi
Формат : AVI
Формат/Информация : Audio Video Interleave
Размер файла : 1,25 Гбайт
Продолжительность : 1 ч. 32 м.
Общий поток : 1937 Кбит/сек
Библиотека кодирования : VirtualDub build 32817/release

Видео
Идентификатор : 0
Формат : MPEG-4 Visual
Профиль формата : Advanced Simple@L5
Параметр BVOP формата : 2
Параметр QPel формата : Нет
Параметр GMC формата : Без точки перехода
Параметр матрицы формата : Default (MPEG)
Идентификатор кодека : XVID
Идентификатор кодека/Подсказка : XviD
Продолжительность : 1 ч. 32 м.
Битрейт : 1800 Кбит/сек
Ширина : 704 пикселя
Высота : 448 пикселей
Соотношение сторон : 16:10
Частота кадров : 25,000 кадров/сек
Цветовое пространство : YUV
Субдискретизация насыщенности : 4:2:0
Битовая глубина : 8 бит
Тип развёртки : Прогрессивная
Метод сжатия : С потерями
Бит/(Пиксели*Кадры) : 0.228
Размер потока : 1,16 Гбайт (93%)
Библиотека кодирования : XviD 1.2.1 (UTC 2008-12-04)

Аудио
Идентификатор : 1
Формат : MPEG Audio
Версия формата : Version 1
Профиль формата : Layer 3
Режим : Joint stereo
Расширение режима : MS Stereo
Идентификатор кодека : 55
Идентификатор кодека/Подсказка : MP3
Продолжительность : 1 ч. 32 м.
Вид битрейта : Постоянный
Битрейт : 128 Кбит/сек
Каналы : 2 канала
Частота : 48,0 КГц
Метод сжатия : С потерями
Размер потока : 84,4 Мбайт (7%)
Выравнивание : Разделение по промежуткам
Продолжительность промежутка : 40 мс. (1,00 видеокадр)
Время предзагрузки промежутка : 500 мс.



Релиз от:



   Похожие торренты   Торрент   Размер 
В этой теме нет новых непрочитанных сообщений. Последнее пророчество святой Матроны (2015) WEB-DLRip от Generalfilm

264 | 10

1.13 ГБ

В этой теме нет новых непрочитанных сообщений. Подлинная история жизни святой Матроны (2012) IPTVRip от KinoZalSat

84 | 2

650.71 МБ

В этой теме нет новых непрочитанных сообщений. Последнее пророчество / The Garden (2006) DVDRip-AVC | P

159 | 32

1.59 ГБ

В этой теме нет новых непрочитанных сообщений. Последнее пророчество / The Garden (2006) DVDRip от ExKinoRay

9 | 50

1.37 ГБ

В этой теме нет новых непрочитанных сообщений. Иннокентий Смоктуновский. Пророчество для гения (2015) SATRip

65 | 3

638.77 МБ

В этой теме нет новых непрочитанных сообщений. Среда обитания. Еда из поднебесной [эфир от 14.04] (2013) SATRip

12 | 12

632.36 МБ

В этой теме нет новых непрочитанных сообщений. Эффект Матроны [01-20 из 20] (2015) WEB-DLRip от Generalfilm

46 | 18

12.03 ГБ




Вы не можете начинать темы
Вы не можете отвечать на сообщения
Вы не можете редактировать свои сообщения
Вы не можете удалять свои сообщения
Вы не можете добавлять вложения

Перейти:  
Для Мосгорсуда, Роскомнадзора и рекламодателей: mosgorsud-torrent[собачка]yandex.ru
 Вход
ppkBB3cker v.2 © 2008-2014 @ PPK
[ Time : 0.045s | 15 Queries | GZIP : Off ]

Торрент трекер RUTOR.IN, Не можете зайти на rutor.org? Какой новый адрес рутор? Какое зеркало рутор? Не работает rutor.org и зеркала? Тогда наш торрент специально для вас. Rutor.in неофициальное зеркало rutor. В случае если у Вас заблокирован rutor или вдруг Вы не можете на него зайти, то Вы без труда сможете скачать бесплатно и без рекламы последние новинки кино, игр, сериалов и прочего у нас, на Rutor.in. Не нужно использовать прокси, чтобы зайти на рутор, достаточно воспользоваться нашим ресурсом. Все новые фильмы, игры, сериалы, книги и музыка за 2013 и 2014 годы через торрент бесплатно. Скачивайте фильмы в хорошем качестве, игры для пк, xbox, playstation без регистрации. У нас вы найдете новые Зарубежные сериалы и Русские сериалы 2013, 2014, 2015 годов. Оставайтесь с нами, качайте любимые фильмы, игры, сериалы, книги и музыку.
cron