img image001 image001 image001 image001 image001 image001 image001 image001 image001 image001 image001 image001 image001 image001 image001

Planets Sun Sun Sun
Статистика раздачи
Автор: Nickolas3434 | Размер: 517.4 МБ | Добавлен: 11 окт 2015
Раздают: 92    Качают: 2
Скачать торрент
Скачать торрент
Описание торрента

СообщениеДобавлено: 11 окт 2015 

Теория Заговора. Пищевые Концерны


#77
Дата/Год выпуска: 10.10.2015
Страна: Россия
Жанр: Документальный
Продолжительность: 0:38:21
Автор и руководитель цикла: Андрей Сычев
Режиссеры: Алексей Булейко, Кирилл Ващенко
Ведущий: Игорь Савочкин

Описание: Многие из нас уже давно покупают продукты в супермаркетах. За последний год ассортимент товаров резко поменялся. Санкции внесли свои коррективы в потребительскую корзину. Новые товары на прилавках появляются, как грибы после дождя. Но успевает ли руководство супермаркетов контролировать такой производственный ажиотаж? Как известно, в мутной воде легче рыбку ловить. И самим производителям, и владельцам торговых сетей. Как новые реалии отразились на качестве продуктов супермаркетов?

Автор рипа: lrn
Автор записи: GeneralFilm
Сэмпл: sendfile

Качество: HDTVRip-AVC
Формат: MKV
Видео: 1024x576 (16:9), 25,000 fps, H264, ~1500 kbps avg, ~0.102 bit/pixel
Аудио: 48 kHz, AC3 Dolby Digital, 3/2 (L,C,R,l,r) + LFE ch, ~384.00 kbps avg

General
Unique ID : 211295694064608680178019443276974212418 (0x9EF61207D364245AB4A171684DD94542)
Complete name : E:uTorrent.TempTempTeoriya.Zagovora.(2015.10.10).HDTVRip-AVC.x264-lrn.mkv
Format : Matroska
Format version : Version 4 / Version 2
File size : 517 MiB
Duration : 38mn 21s
Overall bit rate : 1 886 Kbps
Movie name : Teoriya.Zagovora.(2015.10.10).HDTVRip-AVC.x264-lrn
Encoded date : UTC 2010-02-22 21:41:31
Writing application : mkvmerge v5.9.0 ('On The Loose') built on Dec 9 2012 15:37:01
Writing library : libebml v1.3.0 + libmatroska v1.4.0
DURATION : 00:38:21.320000000
NUMBER_OF_FRAMES : 57533
NUMBER_OF_BYTES : 431549865
_STATISTICS_WRITING_APP : mkvmerge v7.7.0 ('Six Voices') 32bit built on Feb 28 2015 23:23:00
_STATISTICS_WRITING_DATE_UT : 2015-10-10 14:21:20
_STATISTICS_TAGS : BPS DURATION NUMBER_OF_FRAMES NUMBER_OF_BYTES

Video
ID : 1
Format : AVC
Format/Info : Advanced Video Codec
Format profile : High@L4.1
Format settings, CABAC : Yes
Format settings, ReFrames : 8 frames
Codec ID : V_MPEG4/ISO/AVC
Duration : 38mn 21s
Bit rate : 1 500 Kbps
Width : 1 024 pixels
Height : 576 pixels
Display aspect ratio : 16:9
Frame rate mode : Constant
Frame rate : 25.000 fps
Color space : YUV
Chroma subsampling : 4:2:0
Bit depth : 8 bits
Scan type : Progressive
Bits/(Pixel*Frame) : 0.102
Stream size : 402 MiB (78%)
Writing library : x264 core 146 r2538 121396c
Encoding settings : cabac=1 / ref=8 / deblock=1:-3:-3 / analyse=0x3:0x133 / me=umh / subme=9 / psy=1 / psy_rd=1.00:0.00 / mixed_ref=1 / me_range=32 / chroma_me=1 / trellis=2 / 8x8dct=1 / cqm=0 / deadzone=21,11 / fast_pskip=1 / chroma_qp_offset=-2 / threads=12 / lookahead_threads=2 / sliced_threads=0 / nr=0 / decimate=1 / interlaced=0 / bluray_compat=0 / constrained_intra=0 / bframes=8 / b_pyramid=2 / b_adapt=2 / b_bias=0 / direct=3 / weightb=1 / open_gop=0 / weightp=2 / keyint=250 / keyint_min=25 / scenecut=40 / intra_refresh=0 / rc_lookahead=50 / rc=2pass / mbtree=1 / bitrate=1500 / ratetol=1.0 / qcomp=0.60 / qpmin=0 / qpmax=69 / qpstep=4 / cplxblur=20.0 / qblur=0.5 / vbv_maxrate=62500 / vbv_bufsize=78125 / nal_hrd=none / filler=0 / ip_ratio=1.40 / aq=1:1.00
Default : Yes
Forced : No

Audio
ID : 2
Format : AC-3
Format/Info : Audio Coding 3
Mode extension : CM (complete main)
Format settings, Endianness : Big
Codec ID : A_AC3
Duration : 38mn 21s
Bit rate mode : Constant
Bit rate : 384 Kbps
Channel(s) : 6 channels
Channel positions : Front: L C R, Side: L R, LFE
Sampling rate : 48.0 KHz
Compression mode : Lossy
Stream size : 105 MiB (20%)
Language : Russian
Default : Yes
Forced : No
raw [info]: 1024x576p 1:1 @ 25/1 fps (cfr)
x264 [info]: using SAR=1/1
x264 [info]: using cpu capabilities: MMX2 SSE2Fast SSSE3 SSE4.2 AVX
x264 [info]: profile High, level 4.1
x264 [info]: frame I:779 Avg QP:20.03 size: 67058
x264 [info]: frame P:15447 Avg QP:23.21 size: 15152
x264 [info]: frame B:41307 Avg QP:26.66 size: 3517
x264 [info]: consecutive B-frames: 4.0% 5.4% 9.1% 55.7% 11.2% 11.5% 2.1% 0.9% 0.1%
x264 [info]: mb I I16..4: 11.8% 66.0% 22.2%
x264 [info]: mb P I16..4: 3.1% 8.3% 1.0% P16..4: 42.8% 12.3% 10.6% 0.4% 0.1% skip:21.4%
x264 [info]: mb B I16..4: 0.3% 0.7% 0.1% B16..8: 33.6% 4.8% 1.1% direct: 3.1% skip:56.3% L0:39.6% L1:50.0% BI:10.4%
x264 [info]: 8x8 transform intra:66.7% inter:67.2%
x264 [info]: direct mvs spatial:93.8% temporal:6.2%
x264 [info]: coded y,uvDC,uvAC intra: 62.2% 76.6% 38.5% inter: 12.0% 17.2% 1.2%
x264 [info]: i16 v,h,dc,p: 24% 22% 7% 47%
x264 [info]: i8 v,h,dc,ddl,ddr,vr,hd,vl,hu: 11% 11% 6% 8% 12% 13% 14% 11% 14%
x264 [info]: i4 v,h,dc,ddl,ddr,vr,hd,vl,hu: 14% 13% 4% 8% 13% 12% 13% 10% 13%
x264 [info]: i8c dc,h,v,p: 32% 27% 20% 21%
x264 [info]: Weighted P-Frames: Y:3.8% UV:1.7%
x264 [info]: ref P L0: 55.8% 14.9% 15.0% 4.2% 3.4% 2.5% 2.4% 1.5% 0.2% 0.0%
x264 [info]: ref B L0: 85.4% 8.0% 3.2% 1.4% 1.0% 0.6% 0.4%
x264 [info]: ref B L1: 95.9% 4.1%
x264 [info]: kb/s:1500.18
encoded 57533 frames, 27.46 fps, 1500.18 kb/s



   Похожие торренты   Торрент   Размер 
В этой теме нет новых непрочитанных сообщений. Теория заговора. Пищевые концерны (2015) HDTVRip от GeneralFilm

169 | 10

546.64 МБ

В этой теме нет новых непрочитанных сообщений. Теория Заговора. Пищевые Концерны (2015) HDTVRip 720p

36 | 2

1.18 ГБ

В этой теме нет новых непрочитанных сообщений. Теория заговора. Пищевые концерны (2015) HDTV 1080i от GeneralFilm

37 | 0

3.26 ГБ

В этой теме нет новых непрочитанных сообщений. Теория Заговора. Пищевые Наркотики - Жир (2015) HDTVRip 720p

31 | 2

1.36 ГБ

В этой теме нет новых непрочитанных сообщений. Теория заговора. Пищевые наркотики - жир (2015) HDTVRip от GeneralFilm

149 | 16

636.55 МБ

В этой теме нет новых непрочитанных сообщений. Теория заговора. Пищевые наркотики - жир (2015) HDTV 1080i от GeneralFilm

58 | 4

2.23 ГБ

В этой теме нет новых непрочитанных сообщений. Теория заговора. Банкиры (2015) HDTVRip-AVC от -=HD-NET=-

353 | 15

648.02 МБ




Вы не можете начинать темы
Вы не можете отвечать на сообщения
Вы не можете редактировать свои сообщения
Вы не можете удалять свои сообщения
Вы не можете добавлять вложения

Перейти:  
Для Мосгорсуда, Роскомнадзора и рекламодателей: mosgorsud-torrent[собачка]yandex.ru
 Вход
ppkBB3cker v.2 © 2008-2014 @ PPK
[ Time : 0.535s | 17 Queries | GZIP : Off ]

Торрент трекер RUTOR.IN, Не можете зайти на rutor.org? Какой новый адрес рутор? Какое зеркало рутор? Не работает rutor.org и зеркала? Тогда наш торрент специально для вас. Rutor.in неофициальное зеркало rutor. В случае если у Вас заблокирован rutor или вдруг Вы не можете на него зайти, то Вы без труда сможете скачать бесплатно и без рекламы последние новинки кино, игр, сериалов и прочего у нас, на Rutor.in. Не нужно использовать прокси, чтобы зайти на рутор, достаточно воспользоваться нашим ресурсом. Все новые фильмы, игры, сериалы, книги и музыка за 2013 и 2014 годы через торрент бесплатно. Скачивайте фильмы в хорошем качестве, игры для пк, xbox, playstation без регистрации. У нас вы найдете новые Зарубежные сериалы и Русские сериалы 2013, 2014, 2015 годов. Оставайтесь с нами, качайте любимые фильмы, игры, сериалы, книги и музыку.
cron