img image001 image001 image001 image001 image001 image001 image001 image001 image001 image001 image001 image001 image001 image001 image001

Planets Sun Sun Sun
Статистика раздачи
Автор: Nickolas3434 | Размер: 359.32 МБ | Добавлен: 12 окт 2015
Раздают: 6    Качают: 5
Скачать торрент
Скачать торрент
Описание торрента

СообщениеДобавлено: 12 окт 2015 



Информация о фильме
Название: Надо разобраться (ОНТ) [4 серии из?]
Год выхода: 2015
Режиссер: Ток-шоу

О фильме:
Документальный сериал "Революции ХХI века" о "цветных" революциях в новейшей истории покажет белорусским телезрителям ЗАО "Второй национальный телеканал" (телеканал ОНТ).

Документальный сериал рассказывает о бедствиях, которые народам принесли и продолжают приносить так называемые цветные революции, о влиянии правительств и отдельных представителей стран Запада на внутриполитическую ситуацию в том или ином государстве. Съёмки проводились в Тунисе, Ливии, Египте, Сирии, Ираке, Грузии, Украине, Сербии.

Каждую из серий предварит специальный выпуск программы «Надо разобраться», где ведущий – Григорий Кисель – будет беседовать с представителем соответствующей страны. Так, перед серией о Сербии зрители увидят интервью с бывшим главой Радио и Телевидения Драголюбом Милановичем. Серию о Грузии предварит разговор с общественным деятелем, сыном первого президента страны Константином Гамсахурдия. Перед серией «Арабская дуга» в эфир выйдет интервью с экс-министром информации Сирии, ныне руководителем информационного отделения Партии арабского социологического возрождения Махди Дахлаллом. А фильм о ситуации в Украине ОНТ покажет сразу после беседы с бывшим спикером Верховной Рады Владимиром Литвиным.

В данной раздаче Вы сможете посмотреть специальные выпуски программы «Надо разобраться», белорусского канала ОНТ, которые предваряли каждый документальный фильм из цикла "Революции XXI века".

Цикл документальных фильмов "Революции XXI века" Вы сможете посмотреть тут:
http://rutor.org/torrent/462618

Надо разобраться_Сербия_05.10.2015
Надо разобраться_Грузия_06.10.2015
Надо разобраться_Арабская дуга_07.10.2015
Надо разобраться_Украина_08.10.2015




Страна: Республика Беларусь
Студия: ОНТ
Количество серий: 4
Продолжительность: ~00:17:00 - 00:22:00

Файл
Кодек: MP4
Качество: TVRip
Видео: MPEG4 Video (H264) 600x480 25fps 517kbps
Звук: AAC 44100Hz stereo 125kbps

Семпл

Код:
General
Complete name                  : D:Новая  земля 201 Документальный фильмыВОВ и другие войныРеволюции ХХI векаНадо разобратьсяНадо разобраться_Украина_08.10.2015.mp4
Format                         : MPEG-4
Format profile                 : Base Media
Codec ID                       : isom
File size                      : 106 MiB
Duration                       : 22mn 44s
Overall bit rate               : 649 Kbps
Writing application            : Lavf55.49.100

Video
ID                             : 1
Format                         : AVC
Format/Info                    : Advanced Video Codec
Format profile                 : Main@L3.0
Format settings, CABAC         : Yes
Format settings, ReFrames      : 3 frames
Codec ID                       : avc1
Codec ID/Info                  : Advanced Video Coding
Duration                       : 22mn 44s
Bit rate                       : 518 Kbps
Width                          : 600 pixels
Height                         : 480 pixels
Display aspect ratio           : 5:4
Frame rate mode                : Constant
Frame rate                     : 25.000 fps
Color space                    : YUV
Chroma subsampling             : 4:2:0
Bit depth                      : 8 bits
Scan type                      : Progressive
Bits/(Pixel*Frame)             : 0.072
Stream size                    : 84.2 MiB (80%)

Audio
ID                             : 2
Format                         : AAC
Format/Info                    : Advanced Audio Codec
Format profile                 : LC
Codec ID                       : 40
Duration                       : 22mn 44s
Bit rate mode                  : Constant
Bit rate                       : 126 Kbps
Channel(s)                     : 2 channels
Channel positions              : Front: L R
Sampling rate                  : 44.1 KHz
Compression mode               : Lossy
Stream size                    : 20.4 MiB (19%)





   Похожие торренты   Торрент   Размер 
В этой теме нет новых непрочитанных сообщений. Беларусь XXI [10 серий из 10] (2015) TVRip-AVC от AND03AND

95 | 22

2.85 ГБ

В этой теме нет новых непрочитанных сообщений. Маша и Медведь (1-53 серии) + Машины сказки (1-26 серии) + Машкины страшилки (1-7 серии) + Клип (2009-2015) HDRip, WEB-DLRip от GeneralFilm

936 | 535

6.85 ГБ

В этой теме нет новых непрочитанных сообщений. Я не верю в мужчин, 1-122 серии из 122 / Yo no creo en los hombres (Эрик Моралес, Ксавьер Ромеро, Луис Велес) [2014-2015, теленовелла, драма, TVRip, SUB RU]

0 | 3

69.19 ГБ

В этой теме нет новых непрочитанных сообщений. Сборник - Хиты то, что надо - 2 (2015) MP3

739 | 84

682.76 МБ

В этой теме нет новых непрочитанных сообщений. Serebro - Не надо больнее (2015) MP3

0 | 392

106.83 МБ

В этой теме нет новых непрочитанных сообщений. Концерт - День защитников Отечества. 95 лет Вооруженным Силам Республики Беларусь (2013) TVRip от AND03AND

3 | 2

1.41 ГБ

В этой теме нет новых непрочитанных сообщений. SEREBRO - Не Надо Больнее (Single Remix) (2015) MP3

59 | 7

93.01 МБ




Вы не можете начинать темы
Вы не можете отвечать на сообщения
Вы не можете редактировать свои сообщения
Вы не можете удалять свои сообщения
Вы не можете добавлять вложения

Перейти:  
Для Мосгорсуда, Роскомнадзора и рекламодателей: mosgorsud-torrent[собачка]yandex.ru
 Вход
ppkBB3cker v.2 © 2008-2014 @ PPK
[ Time : 0.044s | 15 Queries | GZIP : Off ]

cron