img image001 image001 image001 image001 image001 image001 image001 image001 image001 image001 image001 image001 image001 image001 image001

Planets Sun Sun Sun
Статистика раздачи
Автор: Nickolas3434 | Размер: 1012.84 МБ | Добавлен: 14 окт 2015
Раздают: 15    Качают: 2
Скачать торрент
Скачать торрент
Описание торрента

СообщениеДобавлено: 14 окт 2015 



Страна: Россия
Жанр: Театральная поэма
Год выпуска: 2007
Продолжительность: 00:26:01
Перевод: Не требуется
Язык: Русский
Оригинальная аудиодорожка: русский

Режиссёр: Эвелина Шац

В ролях:
Елена Шкурпело - Гамлет-Офелия
Павел Кравец - Миледи
Виктор Флиер-Гинтер - Шут
Эвелина Шац - Голос автора

Описание:
Живая книга, книга-театр, дающий современную трактовку образа Гамлета, где текст и инсталляция, музыка и костюмы - единая читаемая Книга-Шар.

Доп. информация:
Музыка:
Андреа Талмелли "Гамлет в Орехе" и Игорь Рогалёв "Adieu"
на стихи Эвелины Шац, а так же Жан-Жак Лемэтр и другие

Композиция и костюмы - Эвелина Шац

Свет - Никита Лучихин

Звук - Иван Курочкин

Видео-художник - Виктор Рибас

Evelina Schatz 2007
33 экземпляра
Качество видео: DVD5
Формат видео: DVD-Video

Видео: PAL 16:9 (720x576) VBR ~ 4100 kbps avg, Auto Pan&Scan, Auto Letterboxed
Аудио: MPEG2 Audio, 2.0, 384 kbps
Код:
General
Complete name                    : VTS_01_1.VOB
Format                           : MPEG-PS
File size                        : 837 MiB
Duration                         : 26mn 1s
Overall bit rate mode            : Variable
Overall bit rate                 : 4 498 Kbps

Video
ID                               : 224 (0xE0)
Format                           : MPEG Video
Format version                   : Version 2
Format profile                   : Main@Main
Format settings, BVOP            : Yes
Format settings, Matrix          : Custom
Duration                         : 26mn 1s
Bit rate mode                    : Variable
Bit rate                         : 4 024 Kbps
Maximum bit rate                 : 6 000 Kbps
Width                            : 720 pixels
Height                           : 576 pixels
Display aspect ratio             : 16:9
Frame rate                       : 25.000 fps
Standard                         : PAL
Color space                      : YUV
Chroma subsampling               : 4:2:0
Bit depth                        : 8 bits
Scan type                        : Interlaced
Scan order                       : Bottom Field First
Compression mode                 : Lossy
Bits/(Pixel*Frame)               : 0.388
Stream size                      : 749 MiB (89%)

Audio
ID                               : 192 (0xC0)
Format                           : MPEG Audio
Format version                   : Version 1
Format profile                   : Layer 2
Duration                         : 26mn 1s
Bit rate mode                    : Constant
Bit rate                         : 384 Kbps
Channel(s)                       : 2 channels
Sampling rate                    : 48.0 KHz
Compression mode                 : Lossy
Stream size                      : 71.5 MiB (9%)

Menu













   Похожие торренты   Торрент   Размер 
В этой теме нет новых непрочитанных сообщений. Эвелина Шац - Над всем Шекспир или Гамлет на балконе (2007) DVDRip

11 | 3

355.17 МБ

В этой теме нет новых непрочитанных сообщений. Уильям Шекспир - Гамлет (2007) MP3

155 | 8

178.63 МБ

В этой теме нет новых непрочитанных сообщений. В.Шекспир - Гамлет (Cпектакль Театра на Таганке) (1971/1980) MP3

37 | 4

138.14 МБ

В этой теме нет новых непрочитанных сообщений. Уильям Шекспир - Гамлет (спектакль Театра на Таганке) (2008) MP3

200 | 14

138.55 МБ

В этой теме нет новых непрочитанных сообщений. Сборник мультфильмов : Шекспир. Анимационные истории - Гамлет, Двенадцатая ночь, Буря / Shakespeare: The Animated Tales (1994) DVDRip

3 | 3

763.22 МБ

В этой теме нет новых непрочитанных сообщений. Во всем виноват посыльный / Во всем виноват портье / Blame It on the Bellboy (1992) DVD5

0 | 4

3.74 ГБ

В этой теме нет новых непрочитанных сообщений. Эвелина Шац - ЕСС Кострома - Стихи и отражения в музыке [авторское чтение] (2007) MP3

9 | 2

183.88 МБ




Вы не можете начинать темы
Вы не можете отвечать на сообщения
Вы не можете редактировать свои сообщения
Вы не можете удалять свои сообщения
Вы не можете добавлять вложения

Перейти:  
Для Мосгорсуда, Роскомнадзора и рекламодателей: mosgorsud-torrent[собачка]yandex.ru
 Вход
ppkBB3cker v.2 © 2008-2014 @ PPK
[ Time : 0.535s | 17 Queries | GZIP : Off ]

Торрент трекер RUTOR.IN, Не можете зайти на rutor.org? Какой новый адрес рутор? Какое зеркало рутор? Не работает rutor.org и зеркала? Тогда наш торрент специально для вас. Rutor.in неофициальное зеркало rutor. В случае если у Вас заблокирован rutor или вдруг Вы не можете на него зайти, то Вы без труда сможете скачать бесплатно и без рекламы последние новинки кино, игр, сериалов и прочего у нас, на Rutor.in. Не нужно использовать прокси, чтобы зайти на рутор, достаточно воспользоваться нашим ресурсом. Все новые фильмы, игры, сериалы, книги и музыка за 2013 и 2014 годы через торрент бесплатно. Скачивайте фильмы в хорошем качестве, игры для пк, xbox, playstation без регистрации. У нас вы найдете новые Зарубежные сериалы и Русские сериалы 2013, 2014, 2015 годов. Оставайтесь с нами, качайте любимые фильмы, игры, сериалы, книги и музыку.
cron