img image001 image001 image001 image001 image001 image001 image001 image001 image001 image001 image001 image001 image001 image001 image001

Planets Sun Sun Sun
Статистика раздачи
Автор: Nickolas3434 | Размер: 384.14 МБ | Добавлен: 14 окт 2015
Раздают: 12    Качают: 64
Скачать торрент
Скачать торрент
Описание торрента

СообщениеДобавлено: 14 окт 2015 



Информация о фильме
Название: В теме
Год выхода: 2015
Жанр: Документальный, политика

О фильме:
В Москве обсуждают итоги выборов президента Белоруссии. С переизбранием на пятый срок Александра Лукашенко поздравил Владимир Путин во время телефонного разговора. Действующий лидер республики одержал победу с большим отрывом от соперников – почти 83,5% голосов, далее всего с 6% идет пункт "против всех" и только потом все остальные кандидаты. Казачий атаман Николай Улахович и лидер либерал-демократов Сергей Гайдукевич признали победу Лукашенко еще до объявления официальных результатов, а единственный оппозиционно настроенный кандидат Татьяна Короткевич решила обжаловать итоги выборов. Окончательные результаты станут известны в пятницу, когда будут учтены данные с зарубежных участков.

Страна: Россия
Продолжительность: 00:29:07
Перевод: Не требуется

Файл
Кодек: XviD
Качество: SATRip
Видео: XviD, 1695 Кбит/с, 704x432
Звук: MP3, 2 ch, 128 Кбит/с


Общее
Полное имя : D:Pyatikratniy prezident.avi
Формат : AVI
Формат/Информация : Audio Video Interleave
Размер файла : 383 Мбайт
Продолжительность : 29 м.
Общий поток : 1835 Кбит/сек
Программа кодирования : Lavf56.25.101
Библиотека кодирования : VirtualDub build 35491/release

Видео
Идентификатор : 0
Формат : xvid
Идентификатор кодека : xvid
Продолжительность : 29 м.
Битрейт : 1695 Кбит/сек
Ширина : 704 пикселя
Высота : 432 пикселей
Соотношение сторон : 4:3
Частота кадров : 25,000 кадров/сек
Бит/(Пиксели*Кадры) : 0.182
Размер потока : 354 Мбайт (92%)

Аудио
Идентификатор : 1
Формат : MPEG Audio
Версия формата : Version 1
Профиль формата : Layer 3
Режим : Joint stereo
Расширение режима : MS Stereo
Идентификатор кодека : 55
Идентификатор кодека/Подсказка : MP3
Продолжительность : 29 м.
Вид битрейта : Постоянный
Битрейт : 128 Кбит/сек
Каналы : 2 канала
Частота : 44,1 КГц
Метод сжатия : С потерями
Размер потока : 26,7 Мбайт (7%)
Выравнивание : Соединение по промежуткам
Продолжительность промежутка : 26 мс. (0,65 видеокадр)
Время предзагрузки промежутка : 522 мс.
Библиотека кодирования : LAME3.99.5




   Похожие торренты   Торрент   Размер 
В этой теме нет новых непрочитанных сообщений. В теме (Кто он?) (2015) SATRip

55 | 3

382.34 МБ

В этой теме нет новых непрочитанных сообщений. В теме. Трамп-пам-пам (2015) SATRip

28 | 1

382.23 МБ

В этой теме нет новых непрочитанных сообщений. В теме. Маршрут построен (2015) SATRip

26 | 1

383.39 МБ

В этой теме нет новых непрочитанных сообщений. В теме. Граница на замке (2015) SATRip

37 | 1

383.29 МБ

В этой теме нет новых непрочитанных сообщений. В теме. Новая победа Ципраса (2015) SATRip

8 | 0

384.14 МБ

В этой теме нет новых непрочитанных сообщений. Президент [01-03 из 03] (2015) SATRip

832 | 21

2.11 ГБ

В этой теме нет новых непрочитанных сообщений. Президент. Фильм-интервью В. Соловьева (2015) SATRip

1268 | 24

2.11 ГБ




Вы не можете начинать темы
Вы не можете отвечать на сообщения
Вы не можете редактировать свои сообщения
Вы не можете удалять свои сообщения
Вы не можете добавлять вложения

Перейти:  
Для Мосгорсуда, Роскомнадзора и рекламодателей: mosgorsud-torrent[собачка]yandex.ru
 Вход
ppkBB3cker v.2 © 2008-2014 @ PPK
[ Time : 0.076s | 14 Queries | GZIP : Off ]

Торрент трекер RUTOR.IN, Не можете зайти на rutor.org? Какой новый адрес рутор? Какое зеркало рутор? Не работает rutor.org и зеркала? Тогда наш торрент специально для вас. Rutor.in неофициальное зеркало rutor. В случае если у Вас заблокирован rutor или вдруг Вы не можете на него зайти, то Вы без труда сможете скачать бесплатно и без рекламы последние новинки кино, игр, сериалов и прочего у нас, на Rutor.in. Не нужно использовать прокси, чтобы зайти на рутор, достаточно воспользоваться нашим ресурсом. Все новые фильмы, игры, сериалы, книги и музыка за 2013 и 2014 годы через торрент бесплатно. Скачивайте фильмы в хорошем качестве, игры для пк, xbox, playstation без регистрации. У нас вы найдете новые Зарубежные сериалы и Русские сериалы 2013, 2014, 2015 годов. Оставайтесь с нами, качайте любимые фильмы, игры, сериалы, книги и музыку.