img image001 image001 image001 image001 image001 image001 image001 image001 image001 image001 image001 image001 image001 image001 image001

Planets Sun Sun Sun
Статистика раздачи
Автор: Nickolas3434 | Размер: 1.33 ГБ | Добавлен: 19 окт 2015
Раздают: 181    Качают: 9
Скачать торрент
Скачать торрент
Описание торрента

СообщениеДобавлено: 19 окт 2015 

Теория Заговора. Пищевые Концерны


#77
Дата/Год выпуска: 17.10.2015
Страна: Россия
Жанр: Документальный
Продолжительность: 0:43:19
Автор и руководитель цикла: Андрей Сычев
Режиссеры: Алексей Булейко, Кирилл Ващенко
Ведущий: Игорь Савочкин

Описание: Нас осознанно "подсаживают" на еду. Мы привыкли думать, что весь вред - от химических добавок. Около 4 килограммов, которые мы съедаем каждый год. Но это капля в море. За тот же год мы с вами съедаем 70 килограммов сахара! И даже не догадываемся, что у каждого второго из нас уже давно диабет.

Автор рипа: lrn
Автор записи: GeneralFilm
Сэмпл: sendfile

Качество: HDTVRip 720p
Формат: MKV
Видео: 1280x720 (16:9), 25,000 fps, H264, ~4000 kbps avg, ~0.174 bit/pixel
Аудио: 48 kHz, AC3 Dolby Digital, 3/2 (L,C,R,l,r) + LFE ch, ~384.00 kbps avg

General
Unique ID : 196299105582184837001121158954275910550 (0x93ADD521FA6B1B92B24BD7573F7D3396)
Complete name : E:uTorrent.TempTempTeoriya.Zagovora.(2015.10.17).HDTV.720p.x264-lrn.mkv
Format : Matroska
Format version : Version 4 / Version 2
File size : 1.33 GiB
Duration : 43mn 19s
Overall bit rate : 4 384 Kbps
Movie name : Teoriya.Zagovora.(2015.10.17).HDTV.720p.x264-lrn
Encoded date : UTC 2010-02-22 21:41:31
Writing application : mkvmerge v5.9.0 ('On The Loose') built on Dec 9 2012 15:37:01
Writing library : libebml v1.3.0 + libmatroska v1.4.0
DURATION : 00:43:19.480000000
NUMBER_OF_FRAMES : 64987
NUMBER_OF_BYTES : 1299276504
_STATISTICS_WRITING_APP : mkvmerge v7.7.0 ('Six Voices') 32bit built on Feb 28 2015 23:23:00
_STATISTICS_WRITING_DATE_UT : 2015-10-17 15:26:19
_STATISTICS_TAGS : BPS DURATION NUMBER_OF_FRAMES NUMBER_OF_BYTES
Video
ID : 1
Format : AVC
Format/Info : Advanced Video Codec
Format profile : High@L4.1
Format settings, CABAC : Yes
Format settings, ReFrames : 8 frames
Codec ID : V_MPEG4/ISO/AVC
Duration : 43mn 19s
Bit rate : 4 000 Kbps
Width : 1 280 pixels
Height : 720 pixels
Display aspect ratio : 16:9
Frame rate mode : Constant
Frame rate : 25.000 fps
Color space : YUV
Chroma subsampling : 4:2:0
Bit depth : 8 bits
Scan type : Progressive
Bits/(Pixel*Frame) : 0.174
Stream size : 1.18 GiB (89%)
Writing library : x264 core 146 r2538 121396c
Encoding settings : cabac=1 / ref=8 / deblock=1:-3:-3 / analyse=0x3:0x133 / me=umh / subme=9 / psy=1 / psy_rd=1.00:0.00 / mixed_ref=1 / me_range=32 / chroma_me=1 / trellis=2 / 8x8dct=1 / cqm=0 / deadzone=21,11 / fast_pskip=1 / chroma_qp_offset=-2 / threads=12 / lookahead_threads=2 / sliced_threads=0 / nr=0 / decimate=1 / interlaced=0 / bluray_compat=0 / constrained_intra=0 / bframes=8 / b_pyramid=2 / b_adapt=2 / b_bias=0 / direct=3 / weightb=1 / open_gop=0 / weightp=2 / keyint=250 / keyint_min=25 / scenecut=40 / intra_refresh=0 / rc_lookahead=50 / rc=2pass / mbtree=1 / bitrate=4000 / ratetol=1.0 / qcomp=0.60 / qpmin=0 / qpmax=69 / qpstep=4 / cplxblur=20.0 / qblur=0.5 / vbv_maxrate=62500 / vbv_bufsize=78125 / nal_hrd=none / filler=0 / ip_ratio=1.40 / aq=1:1.00
Default : Yes
Forced : No
Audio
ID : 2
Format : AC-3
Format/Info : Audio Coding 3
Mode extension : CM (complete main)
Format settings, Endianness : Big
Codec ID : A_AC3
Duration : 43mn 19s
Bit rate mode : Constant
Bit rate : 384 Kbps
Channel(s) : 6 channels
Channel positions : Front: L C R, Side: L R, LFE
Sampling rate : 48.0 KHz
Compression mode : Lossy
Stream size : 119 MiB (9%)
Language : Russian
Default : Yes
Forced : No
raw [info]: 1280x720p 1:1 @ 25/1 fps (cfr)
x264 [info]: using SAR=1/1
x264 [info]: using cpu capabilities: MMX2 SSE2Fast SSSE3 SSE4.2 AVX
x264 [info]: profile High, level 4.1
x264 [info]: frame I:835 Avg QP:13.42 size:139216
x264 [info]: frame P:19424 Avg QP:16.38 size: 39738
x264 [info]: frame B:44728 Avg QP:18.72 size: 9192
x264 [info]: consecutive B-frames: 5.5% 7.6% 7.7% 72.1% 3.7% 2.6% 0.4% 0.4% 0.1%
x264 [info]: mb I I16..4: 6.2% 72.0% 21.7%
x264 [info]: mb P I16..4: 3.2% 13.6% 1.7% P16..4: 39.6% 20.1% 12.7% 0.6% 0.2% skip: 8.2%
x264 [info]: mb B I16..4: 0.3% 1.0% 0.2% B16..8: 32.2% 7.9% 1.8% direct: 6.3% skip:50.2% L0:38.2% L1:43.6% BI:18.2%
x264 [info]: 8x8 transform intra:72.6% inter:56.4%
x264 [info]: direct mvs spatial:98.1% temporal:1.9%
x264 [info]: coded y,uvDC,uvAC intra: 72.3% 85.7% 61.5% inter: 20.3% 26.5% 4.1%
x264 [info]: i16 v,h,dc,p: 32% 20% 6% 42%
x264 [info]: i8 v,h,dc,ddl,ddr,vr,hd,vl,hu: 14% 15% 11% 7% 10% 11% 11% 10% 12%
x264 [info]: i4 v,h,dc,ddl,ddr,vr,hd,vl,hu: 17% 15% 7% 7% 11% 11% 11% 9% 10%
x264 [info]: i8c dc,h,v,p: 39% 26% 21% 14%
x264 [info]: Weighted P-Frames: Y:2.1% UV:1.0%
x264 [info]: ref P L0: 58.7% 10.7% 14.9% 4.9% 3.8% 2.7% 2.4% 1.7% 0.2% 0.0%
x264 [info]: ref B L0: 84.5% 8.8% 3.1% 1.5% 1.0% 0.7% 0.4%
x264 [info]: ref B L1: 97.0% 3.0%
x264 [info]: kb/s:3998.57
encoded 64987 frames, 15.96 fps, 3998.57 kb/s



   Похожие торренты   Торрент   Размер 
В этой теме нет новых непрочитанных сообщений. Теория заговора. Пищевой наркотик – сахар (2015) HDTVRip от GeneralFilm

307 | 10

617.66 МБ

В этой теме нет новых непрочитанных сообщений. Теория заговора. Пищевой наркотик – сахар (2015) HDTV 1080i от GeneralFilm

159 | 19

2.91 ГБ

В этой теме нет новых непрочитанных сообщений. Теория Заговора. Полуфабрикаты (2015) HDTVRip 720p

331 | 33

1.3 ГБ

В этой теме нет новых непрочитанных сообщений. Теория Заговора. Морепродукты (2015) HDTVRip 720p

202 | 19

1.31 ГБ

В этой теме нет новых непрочитанных сообщений. Теория Заговора. Свахи (2015) HDTVRip 720p

38 | 7

1.36 ГБ

В этой теме нет новых непрочитанных сообщений. Теория Заговора. Колбаса и Сосиски (2015) HDTVRip 720p

195 | 11

1.44 ГБ

В этой теме нет новых непрочитанных сообщений. Теория Заговора. Лекарства-Пустышки (2015) HDTVRip 720p

62 | 8

1.34 ГБ




Вы не можете начинать темы
Вы не можете отвечать на сообщения
Вы не можете редактировать свои сообщения
Вы не можете удалять свои сообщения
Вы не можете добавлять вложения

Перейти:  
Для Мосгорсуда, Роскомнадзора и рекламодателей: mosgorsud-torrent[собачка]yandex.ru
 Вход
ppkBB3cker v.2 © 2008-2014 @ PPK
[ Time : 0.018s | 15 Queries | GZIP : On ]

Торрент трекер RUTOR.IN, Не можете зайти на rutor.org? Какой новый адрес рутор? Какое зеркало рутор? Не работает rutor.org и зеркала? Тогда наш торрент специально для вас. Rutor.in неофициальное зеркало rutor. В случае если у Вас заблокирован rutor или вдруг Вы не можете на него зайти, то Вы без труда сможете скачать бесплатно и без рекламы последние новинки кино, игр, сериалов и прочего у нас, на Rutor.in. Не нужно использовать прокси, чтобы зайти на рутор, достаточно воспользоваться нашим ресурсом. Все новые фильмы, игры, сериалы, книги и музыка за 2013 и 2014 годы через торрент бесплатно. Скачивайте фильмы в хорошем качестве, игры для пк, xbox, playstation без регистрации. У нас вы найдете новые Зарубежные сериалы и Русские сериалы 2013, 2014, 2015 годов. Оставайтесь с нами, качайте любимые фильмы, игры, сериалы, книги и музыку.