img image001 image001 image001 image001 image001 image001 image001 image001 image001 image001 image001 image001 image001 image001 image001

Planets Sun Sun Sun
Статистика раздачи
Автор: Nickolas3434 | Размер: 663.38 МБ | Добавлен: 19 окт 2015
Раздают: 515    Качают: 53
Скачать торрент
Скачать торрент
Описание торрента

СообщениеДобавлено: 19 окт 2015 


Информация о фильме
Название: Афганистан. Опиум для народов
Год выхода: 2015
Жанр: Документальный
О фильме:
Осенью 2015 года в Афганистане ожидается рекордный урожай опийного мака. Из собранного сырья будет произведено около ста пятидесяти миллиардов доз героина. В преступный бизнес вовлечены сотни людей, и для большинства из них это всего лишь способ прокормить свою семью. И если в Кабуле часто проводят показательные антинаркотические рейды, то на окраинах страны доход от маковых полей полностью находится под контролем экстремистов из Талибана.
Борьба с наркодельцами в стране напоминает хождение по кругу: чем больше денег выделяется на уничтожение маковых посевов, тем больше увеличиваются площади маковых посевов и количество подпольных лабораторий по производству героина.
А сейчас над Афганистаном нависла еще одна угроза: если боевики «Исламского государства» объединятся с талибами и полностью возьмут доход от производства наркотиков под свой контроль, международный терроризм получит новый мощный источник финансирования…
Авторы документального фильма «Афганистан. Опиум для народов» пытаются доказать: наркобизнес в этом государстве выгоден и талибам, и некоторым коррумпированным членами афганского правительства, и представителям НАТО, базирующимся на территории страны. Без их помощи так называемый Северный маршрут, по которому наркотики поступают из Афганистана в Европу, не мог бы просуществовать и дня.
Страна: Россия
Продолжительность: 00:47:58
Перевод: Не требуется
Файл
Кодек: Xvid
Качество: SATRip
Видео: 720x448 25.00fps 1799kbps
Звук: MPEG Audio Layer 3 48000Hz stereo 128kbps

Общее
Полное имя : D:Afganistan.Opium.dlja.narodov.2015.10.18.SATRip.avi
Формат : AVI
Формат/Информация : Audio Video Interleave
Размер файла : 663 Мбайт
Продолжительность : 47 м.
Общий поток : 1934 Кбит/сек
Программа кодирования : VirtualDubModRus 1.5.10.2 (build 2542/release)
Библиотека кодирования : VirtualDubMod build 2542/release
Видео
Идентификатор : 0
Формат : MPEG-4 Visual
Профиль формата : Advanced Simple@L5
Параметр BVOP формата : 2
Параметр QPel формата : Нет
Параметр GMC формата : Без точки перехода
Параметр матрицы формата : Default (H.263)
Идентификатор кодека : XVID
Идентификатор кодека/Подсказка : XviD
Продолжительность : 47 м.
Битрейт : 1796 Кбит/сек
Ширина : 720 пикселей
Высота : 448 пикселей
Соотношение сторон : 16:10
Частота кадров : 25,000 кадров/сек
Цветовое пространство : YUV
Субдискретизация насыщенности : 4:2:0
Битовая глубина : 8 бит
Тип развёртки : Прогрессивная
Метод сжатия : С потерями
Бит/(Пиксели*Кадры) : 0.223
Размер потока : 616 Мбайт (93%)
Библиотека кодирования : XviD 1.2.1 (UTC 2008-12-04)
Аудио
Идентификатор : 1
Формат : MPEG Audio
Версия формата : Version 1
Профиль формата : Layer 3
Идентификатор кодека : 55
Идентификатор кодека/Подсказка : MP3
Продолжительность : 47 м.
Вид битрейта : Постоянный
Битрейт : 128 Кбит/сек
Каналы : 2 канала
Частота : 48,0 КГц
Метод сжатия : С потерями
Размер потока : 43,9 Мбайт (7%)
Выравнивание : Соединение по промежуткам
Продолжительность промежутка : 40 мс. (1,00 видеокадр)
Время предзагрузки промежутка : 504 мс.
Библиотека кодирования : LAME3.99r
Настройки программы : -m s -V 4 -q 2 -lowpass 17 -b 128

Релиз от:



   Похожие торренты   Торрент   Размер 
В этой теме нет новых непрочитанных сообщений. 9/11: Афганистан / Afghanistan [01-02 из 02] (2011) SATRip

12 | 6

982.53 МБ

В этой теме нет новых непрочитанных сообщений. Афганистан. Спрятанная война (2013) SATRip

1146 | 351

666.11 МБ

В этой теме нет новых непрочитанных сообщений. Последний солдат. Афганистан (2004) SATRip от Dizell

12 | 6

508 МБ

В этой теме нет новых непрочитанных сообщений. Сын отца народов [01-12 из 12] (2013) SATRip

400 | 57

8.44 ГБ

В этой теме нет новых непрочитанных сообщений. Тюрьма народов (2009) SATRip

0 | 2

313.9 МБ

В этой теме нет новых непрочитанных сообщений. Дружба народов [01х01-20 из 20] (2013) SATRip

181 | 123

5.97 ГБ

В этой теме нет новых непрочитанных сообщений. Опиум: дневник сумасшедшей / Ópium: Egy elmebeteg nö naplója (2007) DVDRip от R.G.Mega Best

20 | 3

1.37 ГБ




Вы не можете начинать темы
Вы не можете отвечать на сообщения
Вы не можете редактировать свои сообщения
Вы не можете удалять свои сообщения
Вы не можете добавлять вложения

Перейти:  
Для Мосгорсуда, Роскомнадзора и рекламодателей: mosgorsud-torrent[собачка]yandex.ru
 Вход
ppkBB3cker v.2 © 2008-2014 @ PPK
[ Time : 0.084s | 14 Queries | GZIP : On ]

Торрент трекер RUTOR.IN, Не можете зайти на rutor.org? Какой новый адрес рутор? Какое зеркало рутор? Не работает rutor.org и зеркала? Тогда наш торрент специально для вас. Rutor.in неофициальное зеркало rutor. В случае если у Вас заблокирован rutor или вдруг Вы не можете на него зайти, то Вы без труда сможете скачать бесплатно и без рекламы последние новинки кино, игр, сериалов и прочего у нас, на Rutor.in. Не нужно использовать прокси, чтобы зайти на рутор, достаточно воспользоваться нашим ресурсом. Все новые фильмы, игры, сериалы, книги и музыка за 2013 и 2014 годы через торрент бесплатно. Скачивайте фильмы в хорошем качестве, игры для пк, xbox, playstation без регистрации. У нас вы найдете новые Зарубежные сериалы и Русские сериалы 2013, 2014, 2015 годов. Оставайтесь с нами, качайте любимые фильмы, игры, сериалы, книги и музыку.