img image001 image001 image001 image001 image001 image001 image001 image001 image001 image001 image001 image001 image001 image001 image001

Planets Sun Sun Sun
Статистика раздачи
Автор: Nickolas3434 | Размер: 3.65 ГБ | Добавлен: 30 окт 2015
Раздают: 32    Качают: 8
Скачать торрент
Скачать торрент
Описание торрента

СообщениеДобавлено: 30 окт 2015 


Информация о фильме
Название: Живой Меконг
Оригинальное название: Mekong ALive
Год выхода: 2011
Жанр: документальный
Режиссер: Мишель Нолл
Описание: Документальный фильм о реке Меконг - самой большой реке Юго-Восточной Азии.
Страна: Франция
Продолжительность: 5 х ~ 00:49:00
Перевод: Профессиональный (одноголосый)
Файл
Формат: AVI
Качество: HDTVRip
Видео: 720x480 (1.50:1), 25 fps, XviD build 50 ~2100 kbps avg, 0.27 bit/pixel
Аудио 44.100 kHz, MPEG Layer 3, 2 ch, ~128.00 kbps avg

Общее
Полное имя : J:ДокументальныеЖивой Меконг - Mekong ALive (2011) HDTVRip (P1)�1.Живой Меконг. В царстве рыбы.avi
Формат : AVI
Формат/Информация : Audio Video Interleave
Размер файла : 677 Мбайт
Продолжительность : 48 м.
Общий поток : 1941 Кбит/сек
Программа кодирования : Lavf52.54.0
Видео
Идентификатор : 0
Формат : MPEG-4 Visual
Профиль формата : Simple@L3
Параметр BVOP формата : Нет
Параметр QPel формата : Нет
Параметр GMC формата : Без точки перехода
Параметр матрицы формата : Default (H.263)
Идентификатор кодека : XVID
Идентификатор кодека/Подсказка : XviD
Продолжительность : 48 м.
Битрейт : 1801 Кбит/сек
Ширина : 720 пикселей
Высота : 480 пикселей
Соотношение сторон : 16:9
Частота кадров : 25,000 кадров/сек
Цветовое пространство : YUV
Субдискретизация насыщенности : 4:2:0
Битовая глубина : 8 бит
Тип развёртки : Прогрессивная
Метод сжатия : С потерями
Бит/(Пиксели*Кадры) : 0.208
Размер потока : 628 Мбайт (93%)
Библиотека кодирования : XviD 1.1.2 (UTC 2006-11-01)
Аудио
Идентификатор : 1
Формат : MPEG Audio
Версия формата : Version 1
Профиль формата : Layer 3
Режим : Joint stereo
Расширение режима : MS Stereo
Идентификатор кодека : 55
Идентификатор кодека/Подсказка : MP3
Продолжительность : 48 м.
Вид битрейта : Постоянный
Битрейт : 128 Кбит/сек
Каналы : 2 канала
Частота : 44,1 КГц
Метод сжатия : С потерями
Размер потока : 44,7 Мбайт (7%)
Выравнивание : Соединение по промежуткам
Продолжительность промежутка : 26 мс. (0,65 видеокадр)
Время предзагрузки промежутка : 26 мс.



   Похожие торренты   Торрент   Размер 
В этой теме нет новых непрочитанных сообщений. Живой Меконг / Mekong ALive [01-05 из 05] ( 2011) HDRip-AVC от ~ F-Torrents ~

0 | 126

3.5 ГБ

В этой теме нет новых непрочитанных сообщений. Операция «Меконг» / Mei Gong he xing dong / Operation Mekong (2016) HDRip | L1

59 | 0

2.06 ГБ

В этой теме нет новых непрочитанных сообщений. DOA: Живой или мертвый / DOA: Dead or Alive (2006) BDRip от Kinobomond

58 | 3

1.37 ГБ

В этой теме нет новых непрочитанных сообщений. DOA: Живой или мертвый / DOA: Dead or Alive (2006) BDRip-AVC от MediaClub | D, P2

40 | 8

2.85 ГБ

В этой теме нет новых непрочитанных сообщений. Живой или Мертвый / DOA: Dead or Alive (2006) BDRemux 1080p | D

81 | 22

12.37 ГБ

В этой теме нет новых непрочитанных сообщений. DOA: Живой или мертвый / D.O.A. / DOA: Dead or Alive (2006) BDRip от HELLYWOOD

170 | 4

1.46 ГБ

В этой теме нет новых непрочитанных сообщений. DOA: Живой или мертвый / DOA: Dead or Alive (2006) BDRip от HQCLUB

35 | 5

1.45 ГБ




Вы не можете начинать темы
Вы не можете отвечать на сообщения
Вы не можете редактировать свои сообщения
Вы не можете удалять свои сообщения
Вы не можете добавлять вложения

Перейти:  
Для Мосгорсуда, Роскомнадзора и рекламодателей: mosgorsud-torrent[собачка]yandex.ru
 Вход
ppkBB3cker v.2 © 2008-2014 @ PPK
[ Time : 0.096s | 15 Queries | GZIP : Off ]

Торрент трекер RUTOR.IN, Не можете зайти на rutor.org? Какой новый адрес рутор? Какое зеркало рутор? Не работает rutor.org и зеркала? Тогда наш торрент специально для вас. Rutor.in неофициальное зеркало rutor. В случае если у Вас заблокирован rutor или вдруг Вы не можете на него зайти, то Вы без труда сможете скачать бесплатно и без рекламы последние новинки кино, игр, сериалов и прочего у нас, на Rutor.in. Не нужно использовать прокси, чтобы зайти на рутор, достаточно воспользоваться нашим ресурсом. Все новые фильмы, игры, сериалы, книги и музыка за 2013 и 2014 годы через торрент бесплатно. Скачивайте фильмы в хорошем качестве, игры для пк, xbox, playstation без регистрации. У нас вы найдете новые Зарубежные сериалы и Русские сериалы 2013, 2014, 2015 годов. Оставайтесь с нами, качайте любимые фильмы, игры, сериалы, книги и музыку.