img image001 image001 image001 image001 image001 image001 image001 image001 image001 image001 image001 image001 image001 image001 image001

Planets Sun Sun Sun
Статистика раздачи
Автор: Nickolas3434 | Размер: 16.27 ГБ | Добавлен: 30 окт 2015
Раздают: 22    Качают: 10
Скачать торрент
Скачать торрент
Описание торрента

СообщениеДобавлено: 30 окт 2015 


Информация о фильме
Название: Таинственный портал
Оригинальное название: Foreign Exchange
Год выхода: 2004
Жанр: фэнтези, приключения, детский
Режиссер: Деклан Имис, Джеймс Богл
В ролях: Захари Гарред, Линн Стайлз, Даниэль Фокс-Кларк, Роберт Шиэн, Барбара Гриффин, Питер Динин, Кирсти Хиллхаус, Грег МакНейлл, Джоэль Тернер, Челси Джонс
Описание: Австралийский школьник Бретт Миллер переезжает в новый дом, в подвале которого находит портал в другое измерение. Пройдя сквозь него, Бретт оказывается в Ирландии в школе-пансионе. Там он знакомится с Ханной, которая помогает ему выпутаться из неприятной ситуации и в награду просит показать ей Австралию.

Страна: Австралия, Ирландия
Продолжительность: 26 x ~24 мин.
Перевод: Профессиональный многоголосый закадровый [СТС '2007]
Файл
Формат: MPEG-PS
Качество: DVB
Видео: 720x576, (4:3), ~3500 Кбит/сек, MPEG2, 25,000 кадров/сек
Аудио 2 канала, 192 Кбит/сек, MPEG1, 48,0 КГц

Общее
Полное имя : E:FilmSeason 11x01 Portal [СТС].mpg
Формат : MPEG-PS
Размер файла : 630 Мбайт
Продолжительность : 24 м.
Режим общего битрейта : Переменный
Общий поток : 3671 Кбит/сек
Видео
Идентификатор : 224 (0xE0)
Формат : MPEG Video
Версия формата : Version 2
Профиль формата : Main@Main
Параметр BVOP формата : Да
Параметр матрицы формата : Выборочная
Параметр GOP формата : M=3, N=12
Структура изображения : Frame
Продолжительность : 23 м.
Вид битрейта : Переменный
Битрейт : 3406 Кбит/сек
Максимальный битрейт : 5000 Кбит/сек
Ширина : 720 пикселей
Высота : 576 пикселей
Соотношение сторон : 4:3
Частота кадров : 25,000 кадров/сек
Стандарт вещания : PAL
Цветовое пространство : YUV
Субдискретизация насыщенности : 4:2:0
Битовая глубина : 8 бит
Тип развёртки : Чересстрочная
Порядок развёртки : Верхнее поле первое
Метод сжатия : С потерями
Бит/(Пиксели*Кадры) : 0.328
Временной код первого кадра : 00:00:00:00
Оригинал временного кода : Group of pictures header
GOP, открыто/закрыто : Открыто
GOP, открыто/закрыто на первом кадре : Закрыто
Размер потока : 585 Мбайт (93%)
Аудио
Идентификатор : 192 (0xC0)
Формат : MPEG Audio
Версия формата : Version 1
Профиль формата : Layer 2
Продолжительность : 24 м.
Вид битрейта : Постоянный
Битрейт : 192 Кбит/сек
Каналы : 2 канала
Частота : 48,0 КГц
Метод сжатия : С потерями
Размер потока : 33,0 Мбайт (5%)



   Похожие торренты   Торрент   Размер 
В этой теме нет новых непрочитанных сообщений. Таинственный портал / Foreign Exchange [01-26 из 26] (2004) SATRip

4 | 0

7.53 ГБ

В этой теме нет новых непрочитанных сообщений. Таинственный лес / The Village (2004) WEB-DL 720p

176 | 30

4.97 ГБ

В этой теме нет новых непрочитанных сообщений. Таинственный лес / The Village (2004) HDTVRip

1 | 4

2.18 ГБ

В этой теме нет новых непрочитанных сообщений. Таинственный лес / The Village (2004) DVDRip

35 | 4

745.45 МБ

В этой теме нет новых непрочитанных сообщений. Таинственный лес / The Village (2004) HDTVRip

35 | 4

1.46 ГБ

В этой теме нет новых непрочитанных сообщений. Таинственный лес / The Village (2004) HDRip от Scarabey | D

229 | 6

745.58 МБ

В этой теме нет новых непрочитанных сообщений. Таинственный лес / The Village (2004) WEBRip 1080p | D, P, P2, A

20 | 0

9.09 ГБ




Вы не можете начинать темы
Вы не можете отвечать на сообщения
Вы не можете редактировать свои сообщения
Вы не можете удалять свои сообщения
Вы не можете добавлять вложения

Перейти:  
Для Мосгорсуда, Роскомнадзора и рекламодателей: mosgorsud-torrent[собачка]yandex.ru
 Вход
ppkBB3cker v.2 © 2008-2014 @ PPK
[ Time : 0.068s | 14 Queries | GZIP : Off ]

Торрент трекер RUTOR.IN, Не можете зайти на rutor.org? Какой новый адрес рутор? Какое зеркало рутор? Не работает rutor.org и зеркала? Тогда наш торрент специально для вас. Rutor.in неофициальное зеркало rutor. В случае если у Вас заблокирован rutor или вдруг Вы не можете на него зайти, то Вы без труда сможете скачать бесплатно и без рекламы последние новинки кино, игр, сериалов и прочего у нас, на Rutor.in. Не нужно использовать прокси, чтобы зайти на рутор, достаточно воспользоваться нашим ресурсом. Все новые фильмы, игры, сериалы, книги и музыка за 2013 и 2014 годы через торрент бесплатно. Скачивайте фильмы в хорошем качестве, игры для пк, xbox, playstation без регистрации. У нас вы найдете новые Зарубежные сериалы и Русские сериалы 2013, 2014, 2015 годов. Оставайтесь с нами, качайте любимые фильмы, игры, сериалы, книги и музыку.