img image001 image001 image001 image001 image001 image001 image001 image001 image001 image001 image001 image001 image001 image001 image001

Planets Sun Sun Sun
Статистика раздачи
Автор: Nickolas3434 | Размер: 1.34 ГБ | Добавлен: 02 ноя 2015
Раздают: 62    Качают: 8
Скачать торрент
Скачать торрент
Описание торрента

СообщениеДобавлено: 02 ноя 2015 

Теория Заговора. Лекарства-Пустышки


#77
Год выпуска: 31.10.2015
Страна: Россия
Студия: Первый Канал HD
Жанр: Документальный
Продолжительность: 0:43:47
Автор и руководитель цикла: Андрей Сычев
Режиссеры: Алексей Булейко, Кирилл Ващенко
Ведущий: Михаил Мамаев

Описание: Современная фарминдустрия – налаженный механизм. Сегодня можно купить лекарства практически от любых болезней. Нас приучили пить их горстями и курсами. Самые продаваемые в аптеках лекарства - безрецептурные. Они активно рекламируются в средствах массовой информации, хотя большинство из них нигде в мире не считается лекарством. Фармакологические компании проводят такую "грамотную" маркетинговую политику, что разобраться, где настоящее лекарство, а где "пустышка" зачастую не могут даже специалисты.

Автор рипа: lrn
Автор записи: GeneralFilm
Сэмпл: sendfile

Качество: HDTV 720p
Формат: MKV
Видео: 1280x720 (16:9), 25,000 fps, H264, ~4000 kbps avg, ~0.174 bit/pixel
Аудио: 48 kHz, AC3 Dolby Digital, 3/2 (L,C,R,l,r) + LFE ch, ~384.00 kbps avg

General
Unique ID : 171972630990739092043407980139308679783 (0x8160B955B49B5A4DA29678B201348267)
Complete name : E:uTorrent.TempTempTeoriya.Zagovora.(2015.10.31).HDTV.720p.x264-lrn.mkv
Format : Matroska
Format version : Version 4 / Version 2
File size : 1.34 GiB
Duration : 43mn 47s
Overall bit rate : 4 385 Kbps
Movie name : Teoriya.Zagovora.(2015.10.31).HDTV.720p.x264-lrn
Encoded date : UTC 2010-02-22 21:41:31
Writing application : mkvmerge v5.9.0 ('On The Loose') built on Dec 9 2012 15:37:01
Writing library : libebml v1.3.0 + libmatroska v1.4.0
DURATION : 00:43:47.520000000
NUMBER_OF_FRAMES : 65688
NUMBER_OF_BYTES : 1313595075
_STATISTICS_WRITING_APP : mkvmerge v7.7.0 ('Six Voices') 32bit built on Feb 28 2015 23:23:00
_STATISTICS_WRITING_DATE_UT : 2015-10-31 15:49:48
_STATISTICS_TAGS : BPS DURATION NUMBER_OF_FRAMES NUMBER_OF_BYTES
Video
ID : 1
Format : AVC
Format/Info : Advanced Video Codec
Format profile : High@L4.1
Format settings, CABAC : Yes
Format settings, ReFrames : 8 frames
Codec ID : V_MPEG4/ISO/AVC
Duration : 43mn 47s
Bit rate : 4 000 Kbps
Width : 1 280 pixels
Height : 720 pixels
Display aspect ratio : 16:9
Frame rate mode : Constant
Frame rate : 25.000 fps
Color space : YUV
Chroma subsampling : 4:2:0
Bit depth : 8 bits
Scan type : Progressive
Bits/(Pixel*Frame) : 0.174
Stream size : 1.20 GiB (89%)
Writing library : x264 core 146 r2538 121396c
Encoding settings : cabac=1 / ref=8 / deblock=1:-3:-3 / analyse=0x3:0x133 / me=umh / subme=9 / psy=1 / psy_rd=1.00:0.00 / mixed_ref=1 / me_range=32 / chroma_me=1 / trellis=2 / 8x8dct=1 / cqm=0 / deadzone=21,11 / fast_pskip=1 / chroma_qp_offset=-2 / threads=12 / lookahead_threads=2 / sliced_threads=0 / nr=0 / decimate=1 / interlaced=0 / bluray_compat=0 / constrained_intra=0 / bframes=8 / b_pyramid=2 / b_adapt=2 / b_bias=0 / direct=3 / weightb=1 / open_gop=0 / weightp=2 / keyint=250 / keyint_min=25 / scenecut=40 / intra_refresh=0 / rc_lookahead=50 / rc=2pass / mbtree=1 / bitrate=4000 / ratetol=1.0 / qcomp=0.60 / qpmin=0 / qpmax=69 / qpstep=4 / cplxblur=20.0 / qblur=0.5 / vbv_maxrate=62500 / vbv_bufsize=78125 / nal_hrd=none / filler=0 / ip_ratio=1.40 / aq=1:1.00
Default : Yes
Forced : No
Audio
ID : 2
Format : AC-3
Format/Info : Audio Coding 3
Mode extension : CM (complete main)
Format settings, Endianness : Big
Codec ID : A_AC3
Duration : 43mn 47s
Bit rate mode : Constant
Bit rate : 384 Kbps
Channel(s) : 6 channels
Channel positions : Front: L C R, Side: L R, LFE
Sampling rate : 48.0 KHz
Compression mode : Lossy
Stream size : 120 MiB (9%)
Language : Russian
Default : Yes
Forced : No
raw [info]: 1280x720p 1:1 @ 25/1 fps (cfr)
x264 [info]: using SAR=1/1
x264 [info]: using cpu capabilities: MMX2 SSE2Fast SSSE3 SSE4.2 AVX
x264 [info]: profile High, level 4.1
x264 [info]: frame I:777 Avg QP:14.75 size:119478
x264 [info]: frame P:18571 Avg QP:17.65 size: 39271
x264 [info]: frame B:46340 Avg QP:19.89 size: 10606
x264 [info]: consecutive B-frames: 4.4% 6.1% 9.5% 63.4% 8.1% 7.4% 0.7% 0.4% 0.1%
x264 [info]: mb I I16..4: 7.1% 72.7% 20.1%
x264 [info]: mb P I16..4: 3.2% 11.9% 1.5% P16..4: 42.8% 20.0% 12.3% 0.6% 0.2% skip: 7.6%
x264 [info]: mb B I16..4: 0.3% 0.9% 0.1% B16..8: 37.5% 8.6% 1.9% direct: 7.9% skip:42.7% L0:38.7% L1:44.4% BI:16.9%
x264 [info]: 8x8 transform intra:71.4% inter:61.4%
x264 [info]: direct mvs spatial:97.8% temporal:2.2%
x264 [info]: coded y,uvDC,uvAC intra: 71.3% 85.5% 57.1% inter: 21.6% 29.6% 3.5%
x264 [info]: i16 v,h,dc,p: 28% 16% 7% 50%
x264 [info]: i8 v,h,dc,ddl,ddr,vr,hd,vl,hu: 15% 13% 8% 7% 10% 12% 11% 11% 12%
x264 [info]: i4 v,h,dc,ddl,ddr,vr,hd,vl,hu: 18% 13% 6% 8% 12% 12% 11% 10% 11%
x264 [info]: i8c dc,h,v,p: 35% 25% 22% 18%
x264 [info]: Weighted P-Frames: Y:2.3% UV:0.9%
x264 [info]: ref P L0: 55.6% 11.4% 16.6% 5.0% 4.1% 2.8% 2.6% 1.7% 0.2% 0.0%
x264 [info]: ref B L0: 83.8% 9.7% 3.1% 1.5% 1.0% 0.6% 0.3%
x264 [info]: ref B L1: 96.1% 3.9%
x264 [info]: kb/s:3999.50
encoded 65688 frames, 13.74 fps, 3999.50 kb/s



   Похожие торренты   Торрент   Размер 
В этой теме нет новых непрочитанных сообщений. Теория заговора. Лекарства-пустышки (2015) HDTVRip от GeneralFilm

387 | 18

625.77 МБ

В этой теме нет новых непрочитанных сообщений. Теория заговора. Лекарства-пустышки (2015) HDTV 1080i от GeneralFilm

61 | 7

2.49 ГБ

В этой теме нет новых непрочитанных сообщений. Теория Заговора. Полуфабрикаты (2015) HDTVRip 720p

331 | 33

1.3 ГБ

В этой теме нет новых непрочитанных сообщений. Теория Заговора. Морепродукты (2015) HDTVRip 720p

202 | 19

1.31 ГБ

В этой теме нет новых непрочитанных сообщений. Теория Заговора. Свахи (2015) HDTVRip 720p

38 | 7

1.36 ГБ

В этой теме нет новых непрочитанных сообщений. Теория Заговора. Колбаса и Сосиски (2015) HDTVRip 720p

195 | 11

1.44 ГБ

В этой теме нет новых непрочитанных сообщений. Теория Заговора. Агрессивный Маркетинг (2015) HDTVRip 720p

74 | 6

1.19 ГБ




Вы не можете начинать темы
Вы не можете отвечать на сообщения
Вы не можете редактировать свои сообщения
Вы не можете удалять свои сообщения
Вы не можете добавлять вложения

Перейти:  
Для Мосгорсуда, Роскомнадзора и рекламодателей: mosgorsud-torrent[собачка]yandex.ru
 Вход
ppkBB3cker v.2 © 2008-2014 @ PPK
[ Time : 8.299s | 17 Queries | GZIP : Off ]

Торрент трекер RUTOR.IN, Не можете зайти на rutor.org? Какой новый адрес рутор? Какое зеркало рутор? Не работает rutor.org и зеркала? Тогда наш торрент специально для вас. Rutor.in неофициальное зеркало rutor. В случае если у Вас заблокирован rutor или вдруг Вы не можете на него зайти, то Вы без труда сможете скачать бесплатно и без рекламы последние новинки кино, игр, сериалов и прочего у нас, на Rutor.in. Не нужно использовать прокси, чтобы зайти на рутор, достаточно воспользоваться нашим ресурсом. Все новые фильмы, игры, сериалы, книги и музыка за 2013 и 2014 годы через торрент бесплатно. Скачивайте фильмы в хорошем качестве, игры для пк, xbox, playstation без регистрации. У нас вы найдете новые Зарубежные сериалы и Русские сериалы 2013, 2014, 2015 годов. Оставайтесь с нами, качайте любимые фильмы, игры, сериалы, книги и музыку.
cron