img image001 image001 image001 image001 image001 image001 image001 image001 image001 image001 image001 image001 image001 image001 image001

Planets Sun Sun Sun
Статистика раздачи
Автор: PriZraK | Размер: 1.31 ГБ | Добавлен: 04 ноя 2015
Раздают: 19    Качают: 5
Скачать торрент
Скачать торрент
Описание торрента

СообщениеДобавлено: 04 ноя 2015 



Информация о фильме
Название: Москва - Минск. Кинотранзит
Год выхода: 2007
Жанр: Хроникально-документальный
Режиссер: Елена Егорычева
В ролях: ТРО-Союза

О фильме:
Документальный цикл из трёх фильмов о режиссёре Ларисе Шепитько, о её пути в кинематографе, об истории создания художественного фильма "Восхождение", ставшего её главной работой.

Исходник для данной раздачи, записан с цифрового наземного канала, т.е. DVB-Т, любезно предоставлен PavelDAS
За что ему большое спасибо!
Запись потока *.ts с наземного цифрового телеканала "Беларусь 3", ремукс в *.mkv программой VideoReDo.

Страна: Россия , Республика Беларусь
Студия: ТРО-Союза
Количество серий: 3
Продолжительность: ~00:26:00 каждая серия
Язык: русский

Файл
Кодек: AVC (H264)
Качество: DVB
Видео: MPEG4 Video (H264) 720x576 (49:36) 25fps, 2 108 Kbps
Звук: MPEG Audio 48000Hz stereo 256kbps

Семпл

Москва - Минск. Кинотранзит_01_Лариса Шепитько (2007)
Москва - Минск. Кинотранзит_02_Борис Плотников (2007)
Москва - Минск. Кинотранзит_03_Владимир Гостюхин (2007)


Код:
General
Unique ID                      : 188031310025297719679517046251592635743 (0x8D758356FBB2057CA273C552BD3C555F)
Complete name                  : D:Новая  земля 201 Документальный фильмыЛичностиМосква - Минск. КинотранзитМосква - Минск. Кинотранзит_01_Лариса Шепитько (2007).mkv
Format                         : Matroska
Format version                 : Version 2
File size                      : 444 MiB
Duration                       : 25mn 44s
Overall bit rate               : 2 412 Kbps
Writing application            : Lavf52.64.2
Writing library                : Lavf52.64.2

Video
ID                             : 1
Format                         : AVC
Format/Info                    : Advanced Video Codec
Format profile                 : Main@L3.0
Format settings, CABAC         : Yes
Format settings, ReFrames      : 4 frames
Format settings, GOP           : M=4, N=24
Codec ID                       : V_MPEG4/ISO/AVC
Duration                       : 25mn 44s
Bit rate                       : 2 108 Kbps
Width                          : 720 pixels
Height                         : 576 pixels
Display aspect ratio           : 4:3
Original display aspect ratio  : 4:3
Frame rate mode                : Constant
Frame rate                     : 25.000 fps
Standard                       : PAL
Color space                    : YUV
Chroma subsampling             : 4:2:0
Bit depth                      : 8 bits
Scan type                      : MBAFF
Scan order                     : Top Field First
Bits/(Pixel*Frame)             : 0.203
Stream size                    : 388 MiB (87%)
Default                        : Yes
Forced                         : No
Color primaries                : BT.601 PAL
Transfer characteristics       : BT.470 System B, BT.470 System G
Matrix coefficients            : BT.601
Color range                    : Limited

Audio
ID                             : 2
Format                         : MPEG Audio
Format version                 : Version 1
Format profile                 : Layer 2
Codec ID                       : A_MPEG/L2
Codec ID/Hint                  : MP2
Duration                       : 25mn 44s
Bit rate mode                  : Constant
Bit rate                       : 256 Kbps
Channel(s)                     : 2 channels
Sampling rate                  : 48.0 KHz
Compression mode               : Lossy
Stream size                    : 47.1 MiB (11%)
Language                       : Russian
Default                        : Yes
Forced                         : No





   Похожие торренты   Торрент   Размер 
В этой теме нет новых непрочитанных сообщений. Погружение. Владимир Гостюхин (2014) DVB от AND03AND

2 | 2

978.56 МБ

В этой теме нет новых непрочитанных сообщений. Звездное притяжение / Отто Шмидт / Павел Сухой / Семен Косберг / Борис Кит (2007) SATRip от AND03AND

14 | 3

739.72 МБ

В этой теме нет новых непрочитанных сообщений. Кристалл души (Национальная библиотека Беларуси. Минск) (2009) SATRip от AND03AND

15 | 8

648.79 МБ

В этой теме нет новых непрочитанных сообщений. Хоккей. КХЛ 16/17. РЧ: Спартак (Москва) - Динамо (Минск) [06.09] (2016) HDTVRip 720р | 50fps

0 | 0

3.32 ГБ

В этой теме нет новых непрочитанных сообщений. Минск. Итоги 2015 года (2015) DVB от AND03AND

31 | 4

480.47 МБ

В этой теме нет новых непрочитанных сообщений. Плотников Б.Г. - Жития святых, чтимых Православной Церковью [CD1] (2007) MP3

9 | 4

547.32 МБ

В этой теме нет новых непрочитанных сообщений. Метафора-Владимир Жбанов (2006) DVB от AND03AND

1 | 4

457.41 МБ




Вы не можете начинать темы
Вы не можете отвечать на сообщения
Вы не можете редактировать свои сообщения
Вы не можете удалять свои сообщения
Вы не можете добавлять вложения

Перейти:  
Для Мосгорсуда, Роскомнадзора и рекламодателей: mosgorsud-torrent[собачка]yandex.ru
 Вход
ppkBB3cker v.2 © 2008-2014 @ PPK
[ Time : 2.971s | 15 Queries | GZIP : Off ]

Торрент трекер RUTOR.IN, Не можете зайти на rutor.org? Какой новый адрес рутор? Какое зеркало рутор? Не работает rutor.org и зеркала? Тогда наш торрент специально для вас. Rutor.in неофициальное зеркало rutor. В случае если у Вас заблокирован rutor или вдруг Вы не можете на него зайти, то Вы без труда сможете скачать бесплатно и без рекламы последние новинки кино, игр, сериалов и прочего у нас, на Rutor.in. Не нужно использовать прокси, чтобы зайти на рутор, достаточно воспользоваться нашим ресурсом. Все новые фильмы, игры, сериалы, книги и музыка за 2013 и 2014 годы через торрент бесплатно. Скачивайте фильмы в хорошем качестве, игры для пк, xbox, playstation без регистрации. У нас вы найдете новые Зарубежные сериалы и Русские сериалы 2013, 2014, 2015 годов. Оставайтесь с нами, качайте любимые фильмы, игры, сериалы, книги и музыку.