img image001 image001 image001 image001 image001 image001 image001 image001 image001 image001 image001 image001 image001 image001 image001

Planets Sun Sun Sun
Статистика раздачи
Автор: PriZraK | Размер: 1.79 ГБ | Добавлен: 04 ноя 2015
Раздают: 36    Качают: 5
Скачать торрент
Скачать торрент
Описание торрента

СообщениеДобавлено: 04 ноя 2015 

Зомбимания / Zombiemania


#77
Год выпуска: 2007
Страна: США
Студия: Starz
Жанр: Документальный
Продолжительность: 0:56:03
Перевод: Профессиональный (двухголосый закадровый) | студия "NOVAMEDiA" по заказу "AMEDiA TV"
Режиссер: Донна Дэвис / Donna Davies

Описание: Документальный фильм "Зомбимания" является хроникой развития растущего увлечения темой зомби, которое активно проникает в популярную культуру. Режиссер ленты - Донна Дэвис - испытывает явную страсть к выбранной ею теме и представляет в ее в доступной для основной аудитории форме. Фильм рассказывает о богатой истории происхождения зомби как персонажа кино.


Автор рипа: lrn
Автор записи: Alexin29
Сэмпл: sendfile

Тип релиза: HDTV 720p
Контейнер: MKV
Видео: 1280x720 (16:9), 25,000 fps, H264, ~4000 kbps avg, ~0.174 bit/pixel
Аудио#1: 48 kHz, AC3 Dolby Digital, 3/2 (L,C,R,l,r) + LFE ch, ~384.00 kbps avg | студия "NOVAMEDiA"
Аудио#2: 48 kHz, AC3 Dolby Digital, 2/0 (L,R) ch, ~192.00 kbps avg | Оригинал

General
Unique ID : 246284030825092401348634861841038778484 (0xB9489437F878AEB3AF4FAE3D5D212074)
Complete name : E:uTorrent.TempTempZombiemania.2007.HDTV.720p.x264-RUS-ENG-lrn.mkv
Format : Matroska
Format version : Version 4 / Version 2
File size : 1.79 GiB
Duration : 56mn 3s
Overall bit rate : 4 578 Kbps
Movie name : Zombiemania.2007.HDTV.720p.x264-RUS-ENG-lrn
Encoded date : UTC 2010-02-22 21:41:31
Writing application : mkvmerge v5.9.0 ('On The Loose') built on Dec 9 2012 15:37:01
Writing library : libebml v1.3.0 + libmatroska v1.4.0

Video
ID : 1
Format : AVC
Format/Info : Advanced Video Codec
Format profile : High@L4.1
Format settings, CABAC : Yes
Format settings, ReFrames : 8 frames
Codec ID : V_MPEG4/ISO/AVC
Duration : 56mn 3s
Bit rate : 4 000 Kbps
Width : 1 280 pixels
Height : 720 pixels
Display aspect ratio : 16:9
Frame rate mode : Constant
Frame rate : 25.000 fps
Color space : YUV
Chroma subsampling : 4:2:0
Bit depth : 8 bits
Scan type : Progressive
Bits/(Pixel*Frame) : 0.174
Stream size : 1.53 GiB (85%)
Writing library : x264 core 142 r2479 dd79a61
Encoding settings : cabac=1 / ref=8 / deblock=1:-3:-3 / analyse=0x3:0x133 / me=umh / subme=9 / psy=1 / psy_rd=1.00:0.00 / mixed_ref=1 / me_range=32 / chroma_me=1 / trellis=2 / 8x8dct=1 / cqm=0 / deadzone=21,11 / fast_pskip=1 / chroma_qp_offset=-2 / threads=12 / lookahead_threads=2 / sliced_threads=0 / nr=0 / decimate=1 / interlaced=0 / bluray_compat=0 / constrained_intra=0 / bframes=8 / b_pyramid=2 / b_adapt=2 / b_bias=0 / direct=3 / weightb=1 / open_gop=0 / weightp=2 / keyint=250 / keyint_min=25 / scenecut=40 / intra_refresh=0 / rc_lookahead=50 / rc=2pass / mbtree=1 / bitrate=4000 / ratetol=1.0 / qcomp=0.60 / qpmin=0 / qpmax=69 / qpstep=4 / cplxblur=20.0 / qblur=0.5 / vbv_maxrate=62500 / vbv_bufsize=78125 / nal_hrd=none / filler=0 / ip_ratio=1.40 / aq=1:1.00
Default : Yes
Forced : No
Color range : Limited
Color primaries : BT.709
Transfer characteristics : BT.709
Matrix coefficients : BT.709

Audio #1
ID : 2
Format : AC-3
Format/Info : Audio Coding 3
Mode extension : CM (complete main)
Format settings, Endianness : Big
Codec ID : A_AC3
Duration : 56mn 3s
Bit rate mode : Constant
Bit rate : 384 Kbps
Channel(s) : 6 channels
Channel positions : Front: L C R, Side: L R, LFE
Sampling rate : 48.0 KHz
Compression mode : Lossy
Delay relative to video : 120ms
Stream size : 154 MiB (8%)
Language : Russian
Default : Yes
Forced : Yes

Audio #2
ID : 3
Format : AC-3
Format/Info : Audio Coding 3
Mode extension : CM (complete main)
Format settings, Endianness : Big
Codec ID : A_AC3
Duration : 56mn 3s
Bit rate mode : Constant
Bit rate : 192 Kbps
Channel(s) : 2 channels
Channel positions : Front: L R
Sampling rate : 48.0 KHz
Compression mode : Lossy
Delay relative to video : 120ms
Stream size : 77.0 MiB (4%)
Language : English
Default : No
Forced : No
raw [info]: 1280x720p 1:1 @ 25/1 fps (cfr)
x264 [info]: using SAR=1/1
x264 [info]: using cpu capabilities: MMX2 SSE2Fast SSSE3 SSE4.2 AVX
x264 [info]: profile High, level 4.1
x264 [info]: frame I:691 Avg QP:14.80 size:116821
x264 [info]: frame P:20720 Avg QP:17.57 size: 40253
x264 [info]: frame B:62667 Avg QP:19.89 size: 12238
x264 [info]: consecutive B-frames: 3.6% 3.6% 7.9% 28.7% 33.3% 16.5% 4.1% 1.7% 0.6%
x264 [info]: mb I I16..4: 4.2% 79.9% 15.9%
x264 [info]: mb P I16..4: 1.5% 16.3% 1.6% P16..4: 41.7% 19.6% 12.1% 0.3% 0.1% skip: 6.8%
x264 [info]: mb B I16..4: 0.2% 1.9% 0.2% B16..8: 33.9% 8.3% 1.9% direct: 8.2% skip:45.5% L0:42.8% L1:47.2% BI: 9.9%
x264 [info]: 8x8 transform intra:83.2% inter:65.9%
x264 [info]: direct mvs spatial:99.1% temporal:0.9%
x264 [info]: coded y,uvDC,uvAC intra: 84.9% 63.4% 41.0% inter: 27.4% 20.7% 2.4%
x264 [info]: i16 v,h,dc,p: 28% 21% 9% 42%
x264 [info]: i8 v,h,dc,ddl,ddr,vr,hd,vl,hu: 12% 11% 7% 8% 12% 13% 13% 12% 13%
x264 [info]: i4 v,h,dc,ddl,ddr,vr,hd,vl,hu: 12% 10% 4% 8% 14% 14% 14% 10% 13%
x264 [info]: i8c dc,h,v,p: 52% 20% 15% 13%
x264 [info]: Weighted P-Frames: Y:4.1% UV:1.6%
x264 [info]: ref P L0: 47.4% 9.6% 18.7% 6.7% 6.0% 4.3% 4.2% 2.8% 0.4% 0.0%
x264 [info]: ref B L0: 79.9% 10.5% 4.3% 2.2% 1.6% 1.0% 0.6%
x264 [info]: ref B L1: 95.0% 5.0%
x264 [info]: kb/s:4000.28
encoded 84083 frames, 13.75 fps, 4000.28 kb/s



   Похожие торренты   Торрент   Размер 
В этой теме нет новых непрочитанных сообщений. Зомбимания / Zombiemania (2008) HDTVRip-AVC от -=HD-NET=-

0 | 1

828.75 МБ

В этой теме нет новых непрочитанных сообщений. Зомбимания / Zombie mania (2007) HDTV 1080i

6 | 0

3.43 ГБ

В этой теме нет новых непрочитанных сообщений. Секс Сейчас / Sex Now (2014) HDTVRip 720p | NOVAMEDiA

327 | 20

858.68 МБ

В этой теме нет новых непрочитанных сообщений. В Защиту Слонов / An Apology to Elephants (2013) HDTVRip 720p | NOVAMEDiA

15 | 1

1.22 ГБ

В этой теме нет новых непрочитанных сообщений. Обитель Лжи / House of Lies [04x01-07 из 12] (2015) HDTVRip 720p от qqss44 | Novamedia

19 | 22

5.59 ГБ

В этой теме нет новых непрочитанных сообщений. Обитель Лжи / House of Lies [04x01 из 12] (2015) HDTVRip 720p от qqss44 | Novamedia

124 | 7

976.01 МБ

В этой теме нет новых непрочитанных сообщений. Когда Бьорк Встретила Аттенборо / When Bjork Met Attenborough (2013) HDTVRip 720p | NOVAMEDiA

67 | 2

1.52 ГБ




Вы не можете начинать темы
Вы не можете отвечать на сообщения
Вы не можете редактировать свои сообщения
Вы не можете удалять свои сообщения
Вы не можете добавлять вложения

Перейти:  
Для Мосгорсуда, Роскомнадзора и рекламодателей: mosgorsud-torrent[собачка]yandex.ru
 Вход
ppkBB3cker v.2 © 2008-2014 @ PPK
[ Time : 0.109s | 15 Queries | GZIP : Off ]

Торрент трекер RUTOR.IN, Не можете зайти на rutor.org? Какой новый адрес рутор? Какое зеркало рутор? Не работает rutor.org и зеркала? Тогда наш торрент специально для вас. Rutor.in неофициальное зеркало rutor. В случае если у Вас заблокирован rutor или вдруг Вы не можете на него зайти, то Вы без труда сможете скачать бесплатно и без рекламы последние новинки кино, игр, сериалов и прочего у нас, на Rutor.in. Не нужно использовать прокси, чтобы зайти на рутор, достаточно воспользоваться нашим ресурсом. Все новые фильмы, игры, сериалы, книги и музыка за 2013 и 2014 годы через торрент бесплатно. Скачивайте фильмы в хорошем качестве, игры для пк, xbox, playstation без регистрации. У нас вы найдете новые Зарубежные сериалы и Русские сериалы 2013, 2014, 2015 годов. Оставайтесь с нами, качайте любимые фильмы, игры, сериалы, книги и музыку.