img image001 image001 image001 image001 image001 image001 image001 image001 image001 image001 image001 image001 image001 image001 image001

Planets Sun Sun Sun
Статистика раздачи
Автор: Nickolas3434 | Размер: 881.17 МБ | Добавлен: 09 ноя 2015
Раздают: 117    Качают: 24
Скачать торрент
Скачать торрент
Описание торрента

СообщениеДобавлено: 09 ноя 2015 


Информация о фильме
Название: Иммануил Кант. Философская тропа
Год выхода: 2013
Жанр: Хроникально-документальный
Режиссер: Наталья Лоскутова
В ролях: Александр Васильев
О фильме:
Портрет самого прославленного жителя Кенигсберга, величайшего философа и гуманиста эпохи Просвещения, Иммануила Канта. Цель фильма — опровергнуть расхожее представление о жизни философа, как о скупой на события, несуществующей истории; убедительно и правдиво доказать глубокую взаимосвязь между жизненным и философским путями гениального ученого и необыкновенного человека.
Запись потока *.ts с наземного цифрового телеканала "Беларусь 3", ремукс в *.mkv программой VideoReDo.

Страна: Российская Федерация
Студия: Компания АТК-Студио
Продолжительность: 00:51:58
Файл
Кодек: AVC (H264)
Качество: DVB
Видео: MPEG4 Video (H264) 720x576 (49:36) 25fps, 2 068 Kbps
Звук: MPEG Audio 48000Hz stereo 256kbps
Семпл
Код:
General
Unique ID                      : 98459968780844176391386901529734433345 (0x4A12B3419B9AAAD49F142723969C4A41)
Complete name                  : D:Новая  земля 201 Документальный фильмыЛичностиИммануил Кант. Философская тропа (2013)Иммануил Кант. Философская тропа (2013).mkv
Format                         : Matroska
Format version                 : Version 2
File size                      : 881 MiB
Duration                       : 51mn 58s
Overall bit rate               : 2 371 Kbps
Writing application            : Lavf52.64.2
Writing library                : Lavf52.64.2
Video
ID                             : 1
Format                         : AVC
Format/Info                    : Advanced Video Codec
Format profile                 : Main@L3.0
Format settings, CABAC         : Yes
Format settings, ReFrames      : 4 frames
Format settings, GOP           : M=4, N=24
Codec ID                       : V_MPEG4/ISO/AVC
Duration                       : 51mn 58s
Bit rate                       : 2 068 Kbps
Width                          : 720 pixels
Height                         : 576 pixels
Display aspect ratio           : 4:3
Original display aspect ratio  : 4:3
Frame rate mode                : Constant
Frame rate                     : 25.000 fps
Standard                       : PAL
Color space                    : YUV
Chroma subsampling             : 4:2:0
Bit depth                      : 8 bits
Scan type                      : MBAFF
Scan order                     : Top Field First
Bits/(Pixel*Frame)             : 0.199
Stream size                    : 768 MiB (87%)
Default                        : Yes
Forced                         : No
Color primaries                : BT.601 PAL
Transfer characteristics       : BT.470 System B, BT.470 System G
Matrix coefficients            : BT.601
Color range                    : Limited
Audio
ID                             : 2
Format                         : MPEG Audio
Format version                 : Version 1
Format profile                 : Layer 2
Codec ID                       : A_MPEG/L2
Codec ID/Hint                  : MP2
Duration                       : 51mn 58s
Bit rate mode                  : Constant
Bit rate                       : 256 Kbps
Channel(s)                     : 2 channels
Sampling rate                  : 48.0 KHz
Compression mode               : Lossy
Stream size                    : 95.2 MiB (11%)
Language                       : English
Default                        : Yes
Forced                         : No
 




   Похожие торренты   Торрент   Размер 
В этой теме нет новых непрочитанных сообщений. Кант Иммануил - Критика чистого разума (2010) MP3

21 | 5

1.28 ГБ

В этой теме нет новых непрочитанных сообщений. Тропа смерти / Тропа смерти 2: Искупление (2007-2009) DVDRip от Generalfilm

7 | 2

1.37 ГБ

В этой теме нет новых непрочитанных сообщений. Аверинцев С.С. и др. - Новая философская энциклопедия. В 4 томах (2010) DJVU

100 | 12

118.62 МБ

В этой теме нет новых непрочитанных сообщений. Горькие слезы Петры фон Кант / Die bitteren Tranen der Petra von Kant (1972) DVDRip

47 | 6

2.06 ГБ

В этой теме нет новых непрочитанных сообщений. Горькие слёзы Петры Фон Кант / Die Bitteren Tränen der Petra von Kant (1972) BDRip 720p by msltel | P

10 | 5

5.57 ГБ

В этой теме нет новых непрочитанных сообщений. Горькие слёзы Петры Фон Кант / Die Bitteren Tränen der Petra von Kant (1972) BDRip 1080p by msltel | P

4 | 3

13.02 ГБ

В этой теме нет новых непрочитанных сообщений. Тропа / The Path (2009) PC | Repack

79 | 2

202.87 МБ




Вы не можете начинать темы
Вы не можете отвечать на сообщения
Вы не можете редактировать свои сообщения
Вы не можете удалять свои сообщения
Вы не можете добавлять вложения

Перейти:  
Для Мосгорсуда, Роскомнадзора и рекламодателей: mosgorsud-torrent[собачка]yandex.ru
 Вход
ppkBB3cker v.2 © 2008-2014 @ PPK
[ Time : 0.038s | 14 Queries | GZIP : Off ]

Торрент трекер RUTOR.IN, Не можете зайти на rutor.org? Какой новый адрес рутор? Какое зеркало рутор? Не работает rutor.org и зеркала? Тогда наш торрент специально для вас. Rutor.in неофициальное зеркало rutor. В случае если у Вас заблокирован rutor или вдруг Вы не можете на него зайти, то Вы без труда сможете скачать бесплатно и без рекламы последние новинки кино, игр, сериалов и прочего у нас, на Rutor.in. Не нужно использовать прокси, чтобы зайти на рутор, достаточно воспользоваться нашим ресурсом. Все новые фильмы, игры, сериалы, книги и музыка за 2013 и 2014 годы через торрент бесплатно. Скачивайте фильмы в хорошем качестве, игры для пк, xbox, playstation без регистрации. У нас вы найдете новые Зарубежные сериалы и Русские сериалы 2013, 2014, 2015 годов. Оставайтесь с нами, качайте любимые фильмы, игры, сериалы, книги и музыку.