img image001 image001 image001 image001 image001 image001 image001 image001 image001 image001 image001 image001 image001 image001 image001

Planets Sun Sun Sun
Статистика раздачи
Автор: Nickolas3434 | Размер: 1.46 ГБ | Добавлен: 11 ноя 2015
Раздают: 1180    Качают: 137
Скачать торрент
Скачать торрент
Описание торрента

СообщениеДобавлено: 11 ноя 2015 


Информация о фильме
Оригинальное название: Вещий Олег. Обретенная быль
Год выпуска: 2015
Жанр: Документально-постановочный, история
Режиссер: Михаил Задорнов, Юлия Гапкина
Ведущий: Михаил Задорнов
О фильме:
Сенсация в каждом слове. Михаил Задорнов опровергает утверждения официальной науки и предлагает новый взгляд на историю России: «Такой истории у нас ещё не было!». Кто на самом деле основал российское государство? Кто изобрел алфавит? И кто на самом деле основал европейские города? Деньги на съёмки фильма о великом объединителе русских земель – Вещем Олеге - были собраны поклонниками Михаила Задорнова. «Наш народ хочет знать правду о своём прошлом».
Первая серия
- Наши предки были дикими варварами?
- С. Безруков об истории.
- Гранты за отсутствие истории.
- Валерий Синельников - писатель, ведический психолог.
- Трофим о резных наличниках.
- Михаил Задорнов в поселении родовых поместий «Славное».
- Валерий Синельников о Руси.
- Сварожье коло – модель Вселенной наших предков.
- Прялки – календари наших предков.
- Бани славян и римлян.
- Анатолий Клёсов о славянах, живших 5000 лет назад.
- Михаил Задорнов про буквицу.
Вторая серия
- Памятник тысячелетия Руси. Где Вещий Олег?
- Кем был Вещий Олег?
- Александр Назаренко – доктор исторических наук.
- Певица Пелагея читает стихи о Вещем Олеге.
- Сергей Безруков – Вещий Олег отец родной.
- Вольг Святославич, норманны, урмане.
- Андрей Сахаров – профессор, доктор исторических наук.
- Изборск.
- Съёмки в союзе варяжских дружин «Яровит».
- Подготовка Вещего Олега для похода.
Третья серия
- Что мы знаем о Вещем Олеге? Из Новгорода в Смоленск.
- Михаил Задорнов испытывает камнеметательное орудие.
- Дмитрий Певцов о Вещем Олеге.
- Киев - мать городов русских.
- 882-ой год объединения славян.
- Сергей Безруков – стихи.
Четвертая серия
- Пикирующий сокол. Дмитрий Певцов читает стихи.
- Хазарский Каганат.
- Сказания и апокрифы.
- Славянский тренажёр «правИло».
- Победа русов над Хазарским Каганатом.
- 2000 ладей Вещего Олега на Царьград.
Пятая серия
- Вещий Олег и щит на вратах Царьграда. Руское море.
- Писатель-историк Лев «Озар Ворон» Прозоров – кто мог плавать по рускому морю?
- Лидия Грот – кандидат исторических наук. Почему Олега назвали Вещим?
- Вещий Олег прибил щит на врата Царьграда.
- Ольга Ладомирова. Сбор урожая в ЭКЦ «Колосвет».
- Передача власти от Вещего Олега к Игорю.
- Дмитрий Певцов о смерти Вещего Олега.
- Андрей Сахаров о конце власти Вещего Олега.
- Почему есть несколько могил-курганов Вещего Олега и кто их охраняет?

Выпущено: Россия, Задор ТВ
Продолжительность: 5 x ~ 00:25:00
Перевод: Не требуется
Файл
Кодек: XviD
Качество: WEB-DLRip
Видео: ~ 1430 Кбит/с, 720x400
Звук: AC3, 2ch, 192 Кбит/с
Общее
Полное имя : Zadornov.Veshij.Oleg.(5.serij.iz.5).2015.XviD.WEB-DLRip.by.GeneralFilmZadornov.01.avi
Формат : AVI
Формат/Информация : Audio Video Interleave
Размер файла : 299 Мбайт
Продолжительность : 25 м.
Общий поток : 1633 Кбит/сек
Программа кодирования : VirtualDubMod 1.5.10.3 | www.virtualdub-fr.org || (build 2550/release)
Библиотека кодирования : VirtualDubMod build 2550/release
Видео
Идентификатор : 0
Формат : MPEG-4 Visual
Профиль формата : Advanced Simple@L5
Параметр BVOP формата : 1
Параметр QPel формата : Нет
Параметр GMC формата : Без точки перехода
Параметр матрицы формата : Выборочная
Идентификатор кодека : XVID
Идентификатор кодека/Подсказка : XviD
Продолжительность : 25 м.
Битрейт : 1431 Кбит/сек
Ширина : 720 пикселей
Высота : 400 пикселей
Соотношение сторон : 16:9
Частота кадров : 25,000 кадров/сек
Цветовое пространство : YUV
Субдискретизация насыщенности : 4:2:0
Битовая глубина : 8 бит
Тип развёртки : Прогрессивная
Метод сжатия : С потерями
Бит/(Пиксели*Кадры) : 0.199
Размер потока : 262 Мбайт (88%)
Библиотека кодирования : XviD 73
Аудио
Идентификатор : 1
Формат : AC-3
Формат/Информация : Audio Coding 3
Расширение режима : CM (complete main)
Параметр Endianness формата : Big
Идентификатор кодека : 2000
Продолжительность : 25 м.
Вид битрейта : Постоянный
Битрейт : 192 Кбит/сек
Каналы : 2 канала
Расположение каналов : Front: L R
Частота : 48,0 КГц
Метод сжатия : С потерями
Размер потока : 35,2 Мбайт (12%)
Выравнивание : Разделение по промежуткам
Продолжительность промежутка : 40 мс. (1,00 видеокадр)
Время предзагрузки промежутка : 500 мс.





Релиз от:



   Похожие торренты   Торрент   Размер 
В этой теме нет новых непрочитанных сообщений. Вещий Олег. Обретенная быль (2015) SATRip от Generalfilm

3476 | 340

1.77 ГБ

В этой теме нет новых непрочитанных сообщений. Вещий Олег. Обретённая быль (2015) WEB-DLRip 720p

4144 | 361

2.17 ГБ

В этой теме нет новых непрочитанных сообщений. Борис Васильев – Вещий Олег (2015) MP3

331 | 7

646.12 МБ

В этой теме нет новых непрочитанных сообщений. Михаил Задорнов - История не для всех [эфир от 2013.10.12] (2013) SATRip от GeneralFilm

331 | 15

1.18 ГБ

В этой теме нет новых непрочитанных сообщений. Михаил Задорнов. Неформат 75. ИГИЛ, Сирия, Путин в ООН [03.10] (2015) WEBRip

1369 | 107

1.37 ГБ

В этой теме нет новых непрочитанных сообщений. Михаил Задорнов - Смехопомощь 03 (2003) МР3

9 | 9

14.39 МБ

В этой теме нет новых непрочитанных сообщений. Михаил Задорнов - Мы все из Чи-Чи-Чи-Пи (2006) DVD5

0 | 354

3.13 ГБ




Вы не можете начинать темы
Вы не можете отвечать на сообщения
Вы не можете редактировать свои сообщения
Вы не можете удалять свои сообщения
Вы не можете добавлять вложения

Перейти:  
Для Мосгорсуда, Роскомнадзора и рекламодателей: mosgorsud-torrent[собачка]yandex.ru
 Вход
ppkBB3cker v.2 © 2008-2014 @ PPK
[ Time : 0.038s | 14 Queries | GZIP : Off ]

Торрент трекер RUTOR.IN, Не можете зайти на rutor.org? Какой новый адрес рутор? Какое зеркало рутор? Не работает rutor.org и зеркала? Тогда наш торрент специально для вас. Rutor.in неофициальное зеркало rutor. В случае если у Вас заблокирован rutor или вдруг Вы не можете на него зайти, то Вы без труда сможете скачать бесплатно и без рекламы последние новинки кино, игр, сериалов и прочего у нас, на Rutor.in. Не нужно использовать прокси, чтобы зайти на рутор, достаточно воспользоваться нашим ресурсом. Все новые фильмы, игры, сериалы, книги и музыка за 2013 и 2014 годы через торрент бесплатно. Скачивайте фильмы в хорошем качестве, игры для пк, xbox, playstation без регистрации. У нас вы найдете новые Зарубежные сериалы и Русские сериалы 2013, 2014, 2015 годов. Оставайтесь с нами, качайте любимые фильмы, игры, сериалы, книги и музыку.