img image001 image001 image001 image001 image001 image001 image001 image001 image001 image001 image001 image001 image001 image001 image001

Planets Sun Sun Sun
Статистика раздачи
Автор: Nickolas3434 | Размер: 5.2 ГБ | Добавлен: 12 ноя 2015
Раздают: 41    Качают: 64
Скачать торрент
Скачать торрент
Описание торрента

СообщениеДобавлено: 12 ноя 2015 


Информация о фильме
Название: Новогодний голубой огонёк 1988
Год выхода: 1989
Жанр: Телевизионная развлекательная программа
Режиссер: В.Пронин
О фильме:
Новогодний голубой огонек показанный в ночь с 1988 на 1989 год.
Наиболее полный выпуск в интернете.

Код:
1. Полонез - Московский балет на льду
2. Тост Орловского - из оперетты И.Штрауса «Летучая мышь» солист  Д.Хворостовский
3. Ой, на горе-то калина - Фольклорная группа «Горница»
4. Расцветали яблони и груши - танец "Казачек"(?)
5. Что нас ждет... - А.Сатян
6. Шпионка - В.Леонтьев
7. Chain Reaction - D.Ross
9. Венок колодочных песен - анс. «Русская песня» п/у Н.Бабкиной
10. Когда б имел златые горы - А.Стрельченко
11. Рождественский рассказ - М.Задорнов
12. Как в первый раз - Э.Пьеха
13. Транскрипция В.Горовица на темы оперы «Кармен» - рояль В.Кулешов
14. Балкончик - Т.Гвердцители
15. Вояж, вояж - С.Минаев
16. Испанский танец (?)
17. Скрипач на крыше - Л.Вайкуле
18. Композиция на тему Паганини «Венецианский карнавал»
19. Дымок от папиросы - И.Кобзон
20. Абхазская народная песня
21. Дружеский шарж на программу "Взгляд"
22. Michael Jackson, AS/DS, (?), (?), Wet Wet Wet
23. Интермедия "Телефон" - Е.Петросян
24. Папа Карло - И.Понаровская
25. Как быть? - А.Серов
26. Матриархат - А.Мухамедова
27. Богатырские ворота в стольном граде Киеве - (М.Мусоргский из цикла «Картинки с выставки») Государственный симфонический оркестр СССР п/у Евгения Светланова
28. План - М.Мишин
29. Гусарская баллада - А.Малинин
30. Импровизация - И.Отиева
31. Бал - Рок-группа «Пикник»
32. Дикие лебеди Песня - София Ротару
33. Ты не ангел - А.Глызин
34. Талисман - К.Орбакайте
35. Брейк-данс
36. Поздравления от Клары Новиковой
37. Белый танец - Эйнар Витолс
38. Композиция на тему русской народной песни «Исходила младешенька» Татьяна Петрова
39. Звуковая дорожка - Н.Гнатюк
40. Белый лист - М.Ляник
41. Дружеский шарж - пародия на Урмаса Отта в исполнении Александра Ширвиндта и Михаила Державина при непосредственном участии самого Урмаса Отта
42. Восточный гороскоп - Р.Бабаян, А.Ширвиндт, М.Державин
43. Я тебя поцеловала - А.Пугачева
44. Синяя река - Рок-группа «Форум»
45. Дяденька, продай билет - Владимир Пресняков
46. Holding Out For A Hero - Bonnie Tyler
47. Интермедия "Женская консультация" - Е.Шифрин
48. До завтра - Дмитрий Маликов
49. Дружеский шарж - пародия на Владимира Молчанова и передачу "До и после полуночи"
50. Money For Nothing - Dire Straits
51. Танцевальная композиция
52. Монолог - А.Пугачева
53. Дождь и снег - А.Барыкин
54. Долина света - О.Кормухина

Запись потока *.ts, ремукс в *.mpg программой VideoReDo.

Страна: СССР
Студия: Ностальгия
Продолжительность: 04:14:29
Перевод: нет
Файл
Кодек: AVC (H264)
Качество: DVB
Видео: MPEG2 Video 720x576 (4:3) 25fps, 2 674 Kbps
Звук: MPEG Audio 48000Hz stereo 192kbps
Семпл
Код:
General
Complete name                  : D:Новая  земля 2КонцертыНовогодний голубой огонёк 1988Голубой огонёк 1988.mpg
Format                         : MPEG-PS
File size                      : 5.20 GiB
Duration                       : 4h 14mn
Overall bit rate mode          : Variable
Overall bit rate               : 2 924 Kbps
Video
ID                             : 224 (0xE0)
Format                         : MPEG Video
Format version                 : Version 2
Format profile                 : Main@Main
Format settings, BVOP          : Yes
Format settings, Matrix        : Custom
Format settings, GOP           : M=3, N=12
Format settings, picture struc : Frame
Duration                       : 4h 14mn
Bit rate mode                  : Variable
Bit rate                       : 2 674 Kbps
Maximum bit rate               : 10 000 Kbps
Width                          : 720 pixels
Height                         : 576 pixels
Display aspect ratio           : 4:3
Frame rate                     : 25.000 fps
Standard                       : PAL
Color space                    : YUV
Chroma subsampling             : 4:2:0
Bit depth                      : 8 bits
Scan type                      : Interlaced
Scan order                     : Top Field First
Compression mode               : Lossy
Bits/(Pixel*Frame)             : 0.258
Time code of first frame       : 00:00:00:00
Time code source               : Group of pictures header
GOP, Open/Closed               : Open
Stream size                    : 4.75 GiB (91%)
GOP, Open/Closed of first fram : Closed
Audio
ID                             : 192 (0xC0)
Format                         : MPEG Audio
Format version                 : Version 1
Format profile                 : Layer 2
Duration                       : 4h 14mn
Bit rate mode                  : Constant
Bit rate                       : 192 Kbps
Channel(s)                     : 2 channels
Sampling rate                  : 48.0 KHz
Compression mode               : Lossy
Stream size                    : 349 MiB (7%)
 




   Похожие торренты   Торрент   Размер 
В этой теме нет новых непрочитанных сообщений. Новогодний голубой огонёк 1982 (1982) DVB от AND03AND

166 | 5

4.39 ГБ

В этой теме нет новых непрочитанных сообщений. Новогодний Голубой огонек (2011) SATRip

3 | 7

2.79 ГБ

В этой теме нет новых непрочитанных сообщений. Новогодний Голубой огонек (2013) SATRip

3 | 5

3.97 ГБ

В этой теме нет новых непрочитанных сообщений. Новогодний парад звёзд & Новогодний голубой огонёк 2016 (2015-2016) HDTVRip 1080i

114 | 44

31.66 ГБ

В этой теме нет новых непрочитанных сообщений. Новогодний голубой огонёк (1982) SATRip от MediaClub

201 | 14

2.18 ГБ

В этой теме нет новых непрочитанных сообщений. Новогодний Голубой огонек (2012) SATRip от RiperAM

4 | 1

2.81 ГБ

В этой теме нет новых непрочитанных сообщений. Новогодний Голубой огонек [01-03 из 03](2016) HDTVRip от GeneralFilm

743 | 110

4.91 ГБ




Вы не можете начинать темы
Вы не можете отвечать на сообщения
Вы не можете редактировать свои сообщения
Вы не можете удалять свои сообщения
Вы не можете добавлять вложения

Перейти:  
Для Мосгорсуда, Роскомнадзора и рекламодателей: mosgorsud-torrent[собачка]yandex.ru
 Вход
ppkBB3cker v.2 © 2008-2014 @ PPK
[ Time : 0.051s | 16 Queries | GZIP : Off ]

Торрент трекер RUTOR.IN, Не можете зайти на rutor.org? Какой новый адрес рутор? Какое зеркало рутор? Не работает rutor.org и зеркала? Тогда наш торрент специально для вас. Rutor.in неофициальное зеркало rutor. В случае если у Вас заблокирован rutor или вдруг Вы не можете на него зайти, то Вы без труда сможете скачать бесплатно и без рекламы последние новинки кино, игр, сериалов и прочего у нас, на Rutor.in. Не нужно использовать прокси, чтобы зайти на рутор, достаточно воспользоваться нашим ресурсом. Все новые фильмы, игры, сериалы, книги и музыка за 2013 и 2014 годы через торрент бесплатно. Скачивайте фильмы в хорошем качестве, игры для пк, xbox, playstation без регистрации. У нас вы найдете новые Зарубежные сериалы и Русские сериалы 2013, 2014, 2015 годов. Оставайтесь с нами, качайте любимые фильмы, игры, сериалы, книги и музыку.