img image001 image001 image001 image001 image001 image001 image001 image001 image001 image001 image001 image001 image001 image001 image001

Planets Sun Sun Sun
Статистика раздачи
Автор: Nickolas3434 | Размер: 1.46 ГБ | Добавлен: 17 ноя 2015, 08:42
Раздают: 24    Качают: 8
Скачать торрент
Скачать торрент
Описание торрента

СообщениеДобавлено: 17 ноя 2015, 08:42 


Информация о фильме
Название: Белая планета
Оригинальное название: La planete blanche / The White Planet
Год выхода: 2006
Жанр: документальный
Режиссер: Жан Лемир, Тьерри Пиантанида, Тьерри Рагоберт
В ролях: Жан-Луи Этьен
Описание: Арктика — особый мир, где правит холод сформированный снегом и ветром. Мир замороженных морей, льда, огромных равнин, тундры, гор и ледников. Здесь проживает уникальная фауна, которая сумела адаптироваться к условиям на пределе выживания. С начала зимы и до триумфального возвращения солнца, Белая планета предлагает нам открыть для себя ее хрупкий и находящихся под угрозой исчезновения мир. Удивительный восторг — это именно тот вид эмоций, который испытываешь наблюдая за этим захватывающим диким миром Северного Полюса.
Миром, который раскрывает в каждом из существ, населяющих его, способность к выживанию в самых тяжелых условиях, также приоткрывая все уязвимые места животного мира Арктики. Мы можем наблюдать за первыми, хрупкими шагами по льду детёныша полярного медведя и судьбой маленького канадского оленя карибу, во время крупнейшей в мире дикой миграции животных. Мы становимся свидетелями прихода зимы, а также пробуждения, после долгой полярной ночи, обитателей Белой Планеты.

Страна: Франция, Канада
Продолжительность: 01:21:38
Перевод: Дубляж (студия "Омикрон")
Файл
Формат: AVI
Качество: BDRip (источник: Blu-Ray Disk/1080p)
Видео: 704x384 (1,85:1), XVID, 2094 Кбит/сек, 23,976 кадра/сек
Аудио: AC3, 448 Кбит/сек, 6 каналов, 48,0 КГц

Общее
Полное имя : J:ДокументальныеБелая планета - La planete blanche (2006) BDRip (DUB) {HELLYWOOD}The.White.Planet.2006.RUS.BDRip.XviD.AC3.-HELLYWOOD.avi
Формат : AVI
Формат/Информация : Audio Video Interleave
Размер файла : 1,46 Гбайт
Продолжительность : 1 ч. 21 м.
Общий поток : 2552 Кбит/сек
Название фильма : Белая планета / The White Planet / La planete blanche (2006) BDRip
Режиссёр : olger
Программа кодирования : VirtualDubMod 1.5.10.2 (build 2542/release)
Авторское право : hellywood.ru
Примечание : Blu-Ray Disk (1080p)
Видео
Идентификатор : 0
Формат : MPEG-4 Visual
Профиль формата : Advanced Simple@L5
Параметр BVOP формата : 1
Параметр QPel формата : Нет
Параметр GMC формата : Без точки перехода
Параметр матрицы формата : Выборочная
Идентификатор кодека : XVID
Идентификатор кодека/Подсказка : XviD
Продолжительность : 1 ч. 21 м.
Битрейт : 2094 Кбит/сек
Ширина : 704 пикселя
Высота : 384 пикселя
Соотношение сторон : 1,85:1
Частота кадров : 23,976 кадра/сек
Цветовое пространство : YUV
Субдискретизация насыщенности : 4:2:0
Битовая глубина : 8 бит
Тип развёртки : Прогрессивная
Метод сжатия : С потерями
Бит/(Пиксели*Кадры) : 0.323
Размер потока : 1,19 Гбайт (82%)
Библиотека кодирования : XviD 1.2.1 (UTC 2008-12-04)
Аудио
Идентификатор : 1
Формат : AC-3
Формат/Информация : Audio Coding 3
Расширение режима : CM (complete main)
Параметр Endianness формата : Big
Идентификатор кодека : 2000
Продолжительность : 1 ч. 21 м.
Вид битрейта : Постоянный
Битрейт : 448 Кбит/сек
Каналы : 6 каналов
Расположение каналов : Front: L C R, Side: L R, LFE
Частота : 48,0 КГц
Метод сжатия : С потерями
Размер потока : 262 Мбайт (18%)
Выравнивание : Разделение по промежуткам
Продолжительность промежутка : 42 мс. (1,00 видеокадр)
Время предзагрузки промежутка : 500 мс.



   Похожие торренты   Торрент   Размер 
В этой теме нет новых непрочитанных сообщений. Белая планета / The White Planet / La planete blanche (2006) BDRip от HQCLUB

8 | 2

1.45 ГБ

В этой теме нет новых непрочитанных сообщений. Дикая планета / La planete sauvage (1973) BDRip | P

23 | 4

1.46 ГБ

В этой теме нет новых непрочитанных сообщений. Дикая планета / La planete sauvage (1973) DVDRip

19 | 5

1.3 ГБ

В этой теме нет новых непрочитанных сообщений. Белая свадьба / Noce blanche (1989) HDTVRip | P2

27 | 2

1.46 ГБ

В этой теме нет новых непрочитанных сообщений. Белая свадьба / Noce blanche (1989) DVDRip

2 | 10

785.57 МБ

В этой теме нет новых непрочитанных сообщений. Белая свадьба / Noce blanche (1989) DVDRip от KinoZalSat

19 | 9

1.37 ГБ

В этой теме нет новых непрочитанных сообщений. Белая свадьба / Noce blanche (1989) HDTV 1080p / P2

21 | 9

3.89 ГБ




Вы не можете начинать темы
Вы не можете отвечать на сообщения
Вы не можете редактировать свои сообщения
Вы не можете удалять свои сообщения
Вы не можете добавлять вложения

Перейти:  
Для Мосгорсуда, Роскомнадзора и рекламодателей: mosgorsud-torrent[собачка]yandex.ru
Настройки
ppkBB3cker v.2 © 2008-2014 @ PPK
[ Time : 0.614s | 16 Queries | GZIP : On ]
CGP [Extreme] output time : 0.00377s | 0 Queries | GZIP : On

Торрент трекер RUTOR.IN, Не можете зайти на rutor.org? Какой новый адрес рутор? Какое зеркало рутор? Не работает rutor.org и зеркала? Тогда наш торрент специально для вас. Rutor.in неофициальное зеркало rutor. В случае если у Вас заблокирован rutor или вдруг Вы не можете на него зайти, то Вы без труда сможете скачать бесплатно и без рекламы последние новинки кино, игр, сериалов и прочего у нас, на Rutor.in. Не нужно использовать прокси, чтобы зайти на рутор, достаточно воспользоваться нашим ресурсом. Все новые фильмы, игры, сериалы, книги и музыка за 2013 и 2014 годы через торрент бесплатно. Скачивайте фильмы в хорошем качестве, игры для пк, xbox, playstation без регистрации. У нас вы найдете новые Зарубежные сериалы и Русские сериалы 2013, 2014, 2015 годов. Оставайтесь с нами, качайте любимые фильмы, игры, сериалы, книги и музыку.