img image001 image001 image001 image001 image001 image001 image001 image001 image001 image001 image001 image001 image001 image001 image001

Planets Sun Sun Sun
Статистика раздачи
Автор: Nickolas3434 | Размер: 933.29 МБ | Добавлен: 17 ноя 2015
Раздают: 169    Качают: 36
Скачать торрент
Скачать торрент
Описание торрента

СообщениеДобавлено: 17 ноя 2015 


Информация о фильме
Название: Пламя и пепел Первой Мировой. Крепость Осовец. Русские не сдаются / Сестры немилосердной войны
Год выхода: 2015
Жанр: Документальный
Режиссер: Александр Искин
О фильме:
Фильм первый: Крепость Осовец. Русские не сдаются
Крылатая фраза «Русские не сдаются!» облетела весь мир еще в годы Первой мировой войны – в 1915 году во время обороны небольшой крепости Осовец, расположенной на территории нынешней Польши, в то время входившей в Северо-Западные Земли России (ныне Беларусь). Маленькому русскому гарнизону требовалось продержаться лишь 48 часов. Он защищался более полугода – 190 дней!
Немцы применили против защитников крепости все новейшие оружейные достижения, включая авиацию. На каждого защитника пришлось несколько тысяч бомб и снарядов. Сброшенных с аэропланов и выпущенных из десятков орудий 17-ти батарей, включавших две знаменитых «Больших Берты» (которые русские ухитрились при этом подбить).
Немцы бомбили крепость день и ночь. Месяц за месяцем. Русские защищались среди урагана огня и железа до последнего. Их было крайне мало, но на предложения о сдаче всегда следовал один и тот же ответ. Тогда немцы развернули против крепости 30 газовых батарей. На русские позиции из тысяч баллонов ударила 12-метровая волна химической атаки. Противогазов не было.
Все живое на территории крепости было отравлено. Почернела и пожухла даже трава. Толстый ядовито-зеленый слой окиси хлора покрыл металлические части орудий и снарядов. Одновременно германцы начали массированный артобстрел. Вслед за ним на штурм русских позиций двинулись свыше 7000 пехотинцев.
Казалось, крепость обречена и уже взята. Густые, многочисленные немецкие цепи походили все ближе и ближе… И в этот момент из ядовито-зеленого хлорного тумана на них обрушилась… контратака! Русских было чуть больше шестидесяти. Остатки 13-й роты 226-го Землянского полка. На каждого контратакующего приходилось больше ста врагов!
Русские шли в полный рост. В штыковую. Сотрясаясь от кашля, выплевывая, сквозь тряпки обматывавшие лица, куски легких на окровавленные гимнастерки…
Эти воины повергли противника в такой ужас, что немцы, не приняв боя, ринулись назад. В панике топча друг друга, путаясь и повисая на собственных заграждениях из колючей проволоки. И тут по ним из клубов отравленного тумана ударила, казалось бы, уже мертвая русская артиллерия.
Это сражение войдет в историю как «атака мертвецов». В ходе ее несколько десятков полуживых русских воинов обратили в бегство 14 батальонов противника!
Русские защитники Осовца так и не сдали крепость. Она была оставлена позже. И по приказу командования. Когда оборона потеряла смысл. Врагу не оставили ни патрона, ни гвоздя. Все уцелевшее в крепости от немецкого огня и бомбежек было взорвано русскими саперами. Немцы решились занять руины только через несколько дней.
Фильм второй: Сестры немилосердной войны
Первая мировая война стала испытанием для России, именно о ней говорили: «Великая Отечественная». Многие женщины тогда стремились на фронт, чтобы воевать с врагом вместе с отцами, мужьями и братьями. Они становились сестрами милосердия и старались попасть ближе к передовой, где их помощь воинам была особенно необходима.
Документальный фильм о русских женщинах, которые добровольцами уходили на фронта Первой мировой войны.
Запись потока *.ts с наземного цифрового телеканала "Беларусь 3", ремукс в *.mkv программой VideoReDo.

Страна: Российская Федерация
Студия: ООО Продюсерская компания "Кино и Театр"
Продолжительность: 00:25:57 + 00:25:59
Файл
Кодек: AVC (H264)
Качество: DVB
Видео: MPEG4 Video (H264) 720x576 (49:36) 25fps, 2 207 Kbps
Звук: MPEG Audio 48000Hz stereo 256kbps
Семпл
Код:
General
Unique ID                      : 88585816680612710672308011622711822161 (0x42A501F89523705384426D3258AE0751)
Complete name                  : D:Новая  земля 201 Документальный фильмыВОВ и другие войныПламя и пепел Первой Мировой (2015)Пламя и пепел Первой Мировой (2015)Крепость Осовец. Русские не сдаются (2015).mkv
Format                         : Matroska
Format version                 : Version 2
File size                      : 466 MiB
Duration                       : 25mn 57s
Overall bit rate               : 2 513 Kbps
Writing application            : Lavf52.64.2
Writing library                : Lavf52.64.2
Video
ID                             : 1
Format                         : AVC
Format/Info                    : Advanced Video Codec
Format profile                 : Main@L3.0
Format settings, CABAC         : Yes
Format settings, ReFrames      : 4 frames
Format settings, GOP           : M=4, N=24
Codec ID                       : V_MPEG4/ISO/AVC
Duration                       : 25mn 57s
Bit rate                       : 2 207 Kbps
Width                          : 720 pixels
Height                         : 576 pixels
Display aspect ratio           : 4:3
Original display aspect ratio  : 4:3
Frame rate mode                : Constant
Frame rate                     : 25.000 fps
Standard                       : PAL
Color space                    : YUV
Chroma subsampling             : 4:2:0
Bit depth                      : 8 bits
Scan type                      : MBAFF
Scan order                     : Top Field First
Bits/(Pixel*Frame)             : 0.213
Stream size                    : 410 MiB (88%)
Default                        : Yes
Forced                         : No
Color primaries                : BT.601 PAL
Transfer characteristics       : BT.470 System B, BT.470 System G
Matrix coefficients            : BT.601
Color range                    : Limited
Audio
ID                             : 2
Format                         : MPEG Audio
Format version                 : Version 1
Format profile                 : Layer 2
Codec ID                       : A_MPEG/L2
Codec ID/Hint                  : MP2
Duration                       : 25mn 57s
Bit rate mode                  : Constant
Bit rate                       : 256 Kbps
Channel(s)                     : 2 channels
Sampling rate                  : 48.0 KHz
Compression mode               : Lossy
Stream size                    : 47.5 MiB (10%)
Language                       : English
Default                        : Yes
Forced                         : No
 

Код:
General
Unique ID                      : 18968211808626009402913699333137315820 (0xE45250BCDEED5DD6E3B811837D137EC)
Complete name                  : D:Новая  земля 201 Документальный фильмыВОВ и другие войныПламя и пепел Первой Мировой (2015)Пламя и пепел Первой Мировой (2015)Сестры немилосердной войны (2015).mkv
Format                         : Matroska
Format version                 : Version 2
File size                      : 467 MiB
Duration                       : 25mn 58s
Overall bit rate               : 2 512 Kbps
Writing application            : Lavf52.64.2
Writing library                : Lavf52.64.2
Video
ID                             : 1
Format                         : AVC
Format/Info                    : Advanced Video Codec
Format profile                 : Main@L3.0
Format settings, CABAC         : Yes
Format settings, ReFrames      : 4 frames
Format settings, GOP           : M=4, N=24
Codec ID                       : V_MPEG4/ISO/AVC
Duration                       : 25mn 58s
Bit rate                       : 2 206 Kbps
Width                          : 720 pixels
Height                         : 576 pixels
Display aspect ratio           : 4:3
Original display aspect ratio  : 4:3
Frame rate mode                : Constant
Frame rate                     : 25.000 fps
Standard                       : PAL
Color space                    : YUV
Chroma subsampling             : 4:2:0
Bit depth                      : 8 bits
Scan type                      : MBAFF
Scan order                     : Top Field First
Bits/(Pixel*Frame)             : 0.213
Stream size                    : 410 MiB (88%)
Default                        : Yes
Forced                         : No
Color primaries                : BT.601 PAL
Transfer characteristics       : BT.470 System B, BT.470 System G
Matrix coefficients            : BT.601
Color range                    : Limited
Audio
ID                             : 2
Format                         : MPEG Audio
Format version                 : Version 1
Format profile                 : Layer 2
Codec ID                       : A_MPEG/L2
Codec ID/Hint                  : MP2
Duration                       : 25mn 58s
Bit rate mode                  : Constant
Bit rate                       : 256 Kbps
Channel(s)                     : 2 channels
Sampling rate                  : 48.0 KHz
Compression mode               : Lossy
Stream size                    : 47.6 MiB (10%)
Language                       : English
Default                        : Yes
Forced                         : No
 




   Похожие торренты   Торрент   Размер 
В этой теме нет новых непрочитанных сообщений. Осовец. Крепость духа (2015) HDTVRip от Files-х

111 | 4

539.49 МБ

В этой теме нет новых непрочитанных сообщений. Осовец. Крепость Духа (2015) HDTVRip 720p

227 | 5

1.27 ГБ

В этой теме нет новых непрочитанных сообщений. Осовец. Крепость духа (2015) HDTV 1080i от Files-х

118 | 4

1.92 ГБ

В этой теме нет новых непрочитанных сообщений. Брестская крепость (2007) DVB от AND03AND

19 | 3

782.64 МБ

В этой теме нет новых непрочитанных сообщений. Русские сенсации. Две сестры [эфир от 01.06] (2013) SATRip

0 | 4

509.3 МБ

В этой теме нет новых непрочитанных сообщений. Сестры войны / Sisters of War (2010) BDRip-AVC

2 | 3

1.21 ГБ

В этой теме нет новых непрочитанных сообщений. Сестры войны / Sisters of War (2010) HDRip

1 | 3

1.37 ГБ




Вы не можете начинать темы
Вы не можете отвечать на сообщения
Вы не можете редактировать свои сообщения
Вы не можете удалять свои сообщения
Вы не можете добавлять вложения

Перейти:  
Для Мосгорсуда, Роскомнадзора и рекламодателей: mosgorsud-torrent[собачка]yandex.ru
 Вход
ppkBB3cker v.2 © 2008-2014 @ PPK
[ Time : 0.046s | 16 Queries | GZIP : Off ]

Торрент трекер RUTOR.IN, Не можете зайти на rutor.org? Какой новый адрес рутор? Какое зеркало рутор? Не работает rutor.org и зеркала? Тогда наш торрент специально для вас. Rutor.in неофициальное зеркало rutor. В случае если у Вас заблокирован rutor или вдруг Вы не можете на него зайти, то Вы без труда сможете скачать бесплатно и без рекламы последние новинки кино, игр, сериалов и прочего у нас, на Rutor.in. Не нужно использовать прокси, чтобы зайти на рутор, достаточно воспользоваться нашим ресурсом. Все новые фильмы, игры, сериалы, книги и музыка за 2013 и 2014 годы через торрент бесплатно. Скачивайте фильмы в хорошем качестве, игры для пк, xbox, playstation без регистрации. У нас вы найдете новые Зарубежные сериалы и Русские сериалы 2013, 2014, 2015 годов. Оставайтесь с нами, качайте любимые фильмы, игры, сериалы, книги и музыку.