img image001 image001 image001 image001 image001 image001 image001 image001 image001 image001 image001 image001 image001 image001 image001

Planets Sun Sun Sun
Статистика раздачи
Автор: Nickolas3434 | Размер: 927.55 МБ | Добавлен: 17 ноя 2015
Раздают: 51    Качают: 26
Скачать торрент
Скачать торрент
Описание торрента

СообщениеДобавлено: 17 ноя 2015 


Информация о фильме
Название: Великая княгиня. Александра Петровна Романова, принцесса Ольденбургская (Цикл: Быть женщиной - великий шаг)
Год выхода: 2013
Жанр: Документальный
Режиссер: Татьяна Малова
О фильме:
Самая неизвестная из царской династии. Александра Петровна Романова, принцесса Ольденбургская. Она прожила жизнь, которую можно назвать подвигом, прошла через тяжёлые испытания и вышла из всего этого, сохранив в своём сердце любовь к людям.
Её неутомимые руки и доброе, полное сострадания сердце, помогали больным, обездоленным и гонимым найти тепло, приют и покой. Великая княгиня на свои деньги строила больницы, родильные дома, основала Общину сестёр милосердия. Она основала Киево-Покровский женский монастырь, который на протяжении всего ХХ века являлся одним из духовных центров Православной Руси. Традиции, заложенные Матушкой Великой, как называют её в Обители, продолжаются и по сей день.
В фильме собраны уникальные документальные материалы, которые впервые позволяют в полной мере узнать жизненный путь Великой княгини Александры Петровны Романовой, принцессы Ольденбургской. И оценить духовный подвиг этой Великой Женщины, прославленной в лике местночтимых святых Киевской епархии, как Преподобная Великая Княгиня Анастасия Киевская.
В фильме публикуются её уникальные фотографии и письма из Государственного архива Российской Федерации.
МАТЕРИАЛЫ, НЕ ВОШЕДШИЕ В ФИЛЬМ "ВЕЛИКАЯ КНЯГИНЯ"
http://pleiada-tv.ru/index.php/en/item/ ... -knyaginya
Запись потока *.ts с наземного цифрового телеканала "Беларусь 3", ремукс в *.mkv программой VideoReDo.

Страна: Российская Федерация
Студия: ТРК Плеяда
Продолжительность: 00:52:13
Файл
Кодек: AVC (H264)
Качество: DVB
Видео: MPEG4 Video (H264) 720x576 (49:36) 25fps, 2 178 Kbps
Звук: MPEG Audio 48000Hz stereo 256kbps
Семпл
Код:
General
Unique ID                      : 42191612550869039924008365702975168921 (0x1FBDCF1AB6BBDCEB3A0F90BA0E71A199)
Complete name                  : D:Новая  земля 201 Документальный фильмыЛичностиВеликая княгиня (2013)Великая княгиня (2013).mkv
Format                         : Matroska
Format version                 : Version 2
File size                      : 928 MiB
Duration                       : 52mn 12s
Overall bit rate               : 2 484 Kbps
Writing application            : Lavf52.64.2
Writing library                : Lavf52.64.2
Video
ID                             : 1
Format                         : AVC
Format/Info                    : Advanced Video Codec
Format profile                 : Main@L3.0
Format settings, CABAC         : Yes
Format settings, ReFrames      : 4 frames
Format settings, GOP           : M=4, N=24
Codec ID                       : V_MPEG4/ISO/AVC
Duration                       : 52mn 12s
Bit rate                       : 2 178 Kbps
Width                          : 720 pixels
Height                         : 576 pixels
Display aspect ratio           : 4:3
Original display aspect ratio  : 4:3
Frame rate mode                : Constant
Frame rate                     : 25.000 fps
Standard                       : PAL
Color space                    : YUV
Chroma subsampling             : 4:2:0
Bit depth                      : 8 bits
Scan type                      : MBAFF
Scan order                     : Top Field First
Bits/(Pixel*Frame)             : 0.210
Stream size                    : 813 MiB (88%)
Default                        : Yes
Forced                         : No
Color primaries                : BT.601 PAL
Transfer characteristics       : BT.470 System B, BT.470 System G
Matrix coefficients            : BT.601
Color range                    : Limited
Audio
ID                             : 2
Format                         : MPEG Audio
Format version                 : Version 1
Format profile                 : Layer 2
Codec ID                       : A_MPEG/L2
Codec ID/Hint                  : MP2
Duration                       : 52mn 12s
Bit rate mode                  : Constant
Bit rate                       : 256 Kbps
Channel(s)                     : 2 channels
Sampling rate                  : 48.0 KHz
Compression mode               : Lossy
Stream size                    : 95.6 MiB (10%)
Language                       : English
Default                        : Yes
Forced                         : No
 



   Похожие торренты   Торрент   Размер 
В этой теме нет новых непрочитанных сообщений. Великая битва Александра Македонского / Alexander's Greatest Battle (2009) SATRip

2 | 2

626.1 МБ

В этой теме нет новых непрочитанных сообщений. Великая битва Александра Македонского / Alexander's Greatest Battle (2009) HDTVRip от Koenig | D

14 | 1

699.99 МБ

В этой теме нет новых непрочитанных сообщений. Великая Отечественная. Недосказанное [01-07 из ?] (2010) DVB от AND03AND

65 | 11

5.04 ГБ

В этой теме нет новых непрочитанных сообщений. Блаватская Елена Петровна - Из пещер и дебрей Индостана (1883) (2001) MP3

76 | 5

1.3 ГБ

В этой теме нет новых непрочитанных сообщений. Чернава Яра - Княгиня (2015) MP3

417 | 3

89.39 МБ

В этой теме нет новых непрочитанных сообщений. Княгиня Слуцкая (2003) DVDRip от NovaLan

171 | 53

1.37 ГБ

В этой теме нет новых непрочитанных сообщений. Материнский Плач Святой Руси. Княгиня Н. В. Урусова.(2010) mp3

418 | 6

690.78 МБ




Вы не можете начинать темы
Вы не можете отвечать на сообщения
Вы не можете редактировать свои сообщения
Вы не можете удалять свои сообщения
Вы не можете добавлять вложения

Перейти:  
Для Мосгорсуда, Роскомнадзора и рекламодателей: mosgorsud-torrent[собачка]yandex.ru
 Вход
ppkBB3cker v.2 © 2008-2014 @ PPK
[ Time : 0.026s | 14 Queries | GZIP : Off ]

Торрент трекер RUTOR.IN, Не можете зайти на rutor.org? Какой новый адрес рутор? Какое зеркало рутор? Не работает rutor.org и зеркала? Тогда наш торрент специально для вас. Rutor.in неофициальное зеркало rutor. В случае если у Вас заблокирован rutor или вдруг Вы не можете на него зайти, то Вы без труда сможете скачать бесплатно и без рекламы последние новинки кино, игр, сериалов и прочего у нас, на Rutor.in. Не нужно использовать прокси, чтобы зайти на рутор, достаточно воспользоваться нашим ресурсом. Все новые фильмы, игры, сериалы, книги и музыка за 2013 и 2014 годы через торрент бесплатно. Скачивайте фильмы в хорошем качестве, игры для пк, xbox, playstation без регистрации. У нас вы найдете новые Зарубежные сериалы и Русские сериалы 2013, 2014, 2015 годов. Оставайтесь с нами, качайте любимые фильмы, игры, сериалы, книги и музыку.