img image001 image001 image001 image001 image001 image001 image001 image001 image001 image001 image001 image001 image001 image001 image001

Planets Sun Sun Sun
Статистика раздачи
Автор: Nickolas3434 | Размер: 518.53 МБ | Добавлен: 19 ноя 2015
Раздают: 0    Качают: 1
Скачать торрент
Скачать торрент
Описание торрента

СообщениеДобавлено: 19 ноя 2015 


Информация о фильме
Название: Вместе с ним. Владимир Корш-Саблин
Год выхода: 1999
Жанр: Документальный
Режиссер: Владимир Орлов
О фильме:
Документальная лента "Вместе с ним" об одном из основоположников отечественного кинематографа Владимире Корш-Саблине. Вклад Корш-Саблина в становление и развитие отечественного кинематографа сложно переоценить: актер, режиссер таких фильмов, как "В огне рожденная", "Константин Заслонов", "Красные листья", "Первые испытания" "Крушение империи" и многих других, на протяжении многих лет был главой киностудии "Беларусьфильм".
Исходник для данной раздачи, записан с цифрового наземного канала, т.е. DVB-Т, любезно предоставлен PavelDAS
За что ему большое спасибо!
Запись потока *.ts с наземного цифрового телеканала "Беларусь 3", ремукс в *.mkv программой VideoReDo.

Страна: Республика Беларусь
Студия: Белтелерадиокомпания
Продолжительность: 00:30:04
Перевод: не требует
Файл
Кодек: AVC (H264)
Качество: DVB
Видео: MPEG4 Video (H264) 720x576 (49:36) 25fps, 2 107 Kbps
Звук: MPEG Audio 48000Hz stereo 256kbps
Семпл
Код:
General
Unique ID                      : 231746855482039566413815045400181258319 (0xAE58D22329B777DBFB05A9987AB2B84F)
Complete name                  : D:Новая  земля 201 Документальный фильмыЛичностиВместе с ним. Владимир Корш-Саблин (1999)Вместе с ним. Владимир Корш-Саблин (1999).mkv
Format                         : Matroska
Format version                 : Version 2
File size                      : 519 MiB
Duration                       : 30mn 4s
Overall bit rate               : 2 411 Kbps
Writing application            : Lavf52.64.2
Writing library                : Lavf52.64.2
Video
ID                             : 1
Format                         : AVC
Format/Info                    : Advanced Video Codec
Format profile                 : Main@L3.0
Format settings, CABAC         : Yes
Format settings, ReFrames      : 4 frames
Format settings, GOP           : M=4, N=24
Codec ID                       : V_MPEG4/ISO/AVC
Duration                       : 30mn 4s
Bit rate                       : 2 107 Kbps
Width                          : 720 pixels
Height                         : 576 pixels
Display aspect ratio           : 4:3
Original display aspect ratio  : 4:3
Frame rate mode                : Constant
Frame rate                     : 25.000 fps
Standard                       : PAL
Color space                    : YUV
Chroma subsampling             : 4:2:0
Bit depth                      : 8 bits
Scan type                      : MBAFF
Scan order                     : Top Field First
Bits/(Pixel*Frame)             : 0.203
Stream size                    : 453 MiB (87%)
Default                        : Yes
Forced                         : No
Color primaries                : BT.601 PAL
Transfer characteristics       : BT.470 System B, BT.470 System G
Matrix coefficients            : BT.601
Color range                    : Limited
Audio
ID                             : 2
Format                         : MPEG Audio
Format version                 : Version 1
Format profile                 : Layer 2
Codec ID                       : A_MPEG/L2
Codec ID/Hint                  : MP2
Duration                       : 30mn 4s
Bit rate mode                  : Constant
Bit rate                       : 256 Kbps
Channel(s)                     : 2 channels
Sampling rate                  : 48.0 KHz
Compression mode               : Lossy
Stream size                    : 55.1 MiB (11%)
Language                       : English
Default                        : Yes
Forced                         : No
 




   Похожие торренты   Торрент   Размер 
В этой теме нет новых непрочитанных сообщений. Сябры - 30 лет вместе (2006) DVB от AND03AND

43 | 5

935.16 МБ

В этой теме нет новых непрочитанных сообщений. Вместе со своей страной. Алеся (2006) DVB от AND03AND

10 | 3

1.31 ГБ

В этой теме нет новых непрочитанных сообщений. Праздничный концерт - Вместе в новый день [эфир от 06.11.] (2015) DVB от AND03AND

20 | 11

1.81 ГБ

В этой теме нет новых непрочитанных сообщений. Погружение. Владимир Гостюхин (2014) DVB от AND03AND

2 | 2

978.56 МБ

В этой теме нет новых непрочитанных сообщений. Метафора-Владимир Жбанов (2006) DVB от AND03AND

1 | 4

457.41 МБ

В этой теме нет новых непрочитанных сообщений. Владимир Высоцкий. Белорусский след (2011) DVB от AND03AND

44 | 2

459.17 МБ

В этой теме нет новых непрочитанных сообщений. Славянский базар 1999. Антология (1999) DVB от AND03AND

12 | 3

988.37 МБ




Вы не можете начинать темы
Вы не можете отвечать на сообщения
Вы не можете редактировать свои сообщения
Вы не можете удалять свои сообщения
Вы не можете добавлять вложения

Перейти:  
Для Мосгорсуда, Роскомнадзора и рекламодателей: mosgorsud-torrent[собачка]yandex.ru
 Вход
ppkBB3cker v.2 © 2008-2014 @ PPK
[ Time : 0.066s | 15 Queries | GZIP : Off ]

Торрент трекер RUTOR.IN, Не можете зайти на rutor.org? Какой новый адрес рутор? Какое зеркало рутор? Не работает rutor.org и зеркала? Тогда наш торрент специально для вас. Rutor.in неофициальное зеркало rutor. В случае если у Вас заблокирован rutor или вдруг Вы не можете на него зайти, то Вы без труда сможете скачать бесплатно и без рекламы последние новинки кино, игр, сериалов и прочего у нас, на Rutor.in. Не нужно использовать прокси, чтобы зайти на рутор, достаточно воспользоваться нашим ресурсом. Все новые фильмы, игры, сериалы, книги и музыка за 2013 и 2014 годы через торрент бесплатно. Скачивайте фильмы в хорошем качестве, игры для пк, xbox, playstation без регистрации. У нас вы найдете новые Зарубежные сериалы и Русские сериалы 2013, 2014, 2015 годов. Оставайтесь с нами, качайте любимые фильмы, игры, сериалы, книги и музыку.
cron