img image001 image001 image001 image001 image001 image001 image001 image001 image001 image001 image001 image001 image001 image001 image001

Planets Sun Sun Sun
Статистика раздачи
Автор: Nickolas3434 | Размер: 2.57 ГБ | Добавлен: 23 ноя 2015
Раздают: 36    Качают: 12
Скачать торрент
Скачать торрент
Описание торрента

СообщениеДобавлено: 23 ноя 2015 

Нюрнбергский Набат. Репортаж из Прошлого


#77
Год выпуска: 2006
Страна: Россия
Студия: Россия HD
Жанр: Документальный
Продолжительность: 1:27:54
Режиссер: Владилен Арсеньев

Описание: Документальный фильм по книге Александра Звягинцева состоит из двух частей: "Последнее сражение" и "Казнь". Это ничем не примечательное здание в центре Нюрнберга особо отмечено в мировой истории. Нюрнберг - город ремесленников, музыкантов, игрушечных дел мастеров, многих поколений добропорядочных бюргеров, родина великого художника Дюрера - навсегда вошел в историю прежде всего "Судом народов"

Автор рипа: lrn
Автор записи: Alexin29
Сэмпл: sendfile

Тип релиза: HDTVRip 720p
Контейнер: MKV
Видео: 1280x720 (16:9), 25,000 fps, H264, ~4000 kbps avg, ~0.174 bit/pixel
Аудио: 48 kHz, AC3 Dolby Digital, 2/0 (L,R) ch, ~192.00 kbps avg

General
Unique ID : 236362489533085263982947606981576851796 (0xB1D1C27740F80F98A495CC0100898154)
Complete name : E:uTorrent.TempTempNurnberskiy.Nabat.Reportaj.iz.Proshlogo.2006.HDTV.720p.x264-lrn.mkv
Format : Matroska
Format version : Version 4 / Version 2
File size : 2.57 GiB
Duration : 1h 27mn
Overall bit rate : 4 193 Kbps
Movie name : Nurnberskiy.Nabat.Reportaj.iz.Proshlogo.2006.HDTV.720p.x264-lrn
Encoded date : UTC 2010-02-22 21:41:31
Writing application : mkvmerge v5.9.0 ('On The Loose') built on Dec 9 2012 15:37:01
Writing library : libebml v1.3.0 + libmatroska v1.4.0
Video
ID : 1
Format : AVC
Format/Info : Advanced Video Codec
Format profile : High@L4.1
Format settings, CABAC : Yes
Format settings, ReFrames : 8 frames
Codec ID : V_MPEG4/ISO/AVC
Duration : 1h 27mn
Bit rate : 4 000 Kbps
Width : 1 280 pixels
Height : 720 pixels
Display aspect ratio : 16:9
Frame rate mode : Constant
Frame rate : 25.000 fps
Color space : YUV
Chroma subsampling : 4:2:0
Bit depth : 8 bits
Scan type : Progressive
Bits/(Pixel*Frame) : 0.174
Stream size : 2.41 GiB (93%)
Writing library : x264 core 142 r2479 dd79a61
Encoding settings : cabac=1 / ref=8 / deblock=1:-3:-3 / analyse=0x3:0x133 / me=umh / subme=9 / psy=1 / psy_rd=1.00:0.00 / mixed_ref=1 / me_range=32 / chroma_me=1 / trellis=2 / 8x8dct=1 / cqm=0 / deadzone=21,11 / fast_pskip=1 / chroma_qp_offset=-2 / threads=12 / lookahead_threads=2 / sliced_threads=0 / nr=0 / decimate=1 / interlaced=0 / bluray_compat=0 / constrained_intra=0 / bframes=8 / b_pyramid=2 / b_adapt=2 / b_bias=0 / direct=3 / weightb=1 / open_gop=0 / weightp=2 / keyint=250 / keyint_min=25 / scenecut=40 / intra_refresh=0 / rc_lookahead=50 / rc=2pass / mbtree=1 / bitrate=4000 / ratetol=1.0 / qcomp=0.60 / qpmin=0 / qpmax=69 / qpstep=4 / cplxblur=20.0 / qblur=0.5 / vbv_maxrate=62500 / vbv_bufsize=78125 / nal_hrd=none / filler=0 / ip_ratio=1.40 / aq=1:1.00
Default : Yes
Forced : No
Color range : Limited
Color primaries : BT.709
Transfer characteristics : BT.709
Matrix coefficients : BT.709
Audio
ID : 2
Format : AC-3
Format/Info : Audio Coding 3
Mode extension : CM (complete main)
Format settings, Endianness : Big
Codec ID : A_AC3
Duration : 1h 27mn
Bit rate mode : Constant
Bit rate : 192 Kbps
Channel(s) : 2 channels
Channel positions : Front: L R
Sampling rate : 48.0 KHz
Compression mode : Lossy
Stream size : 121 MiB (5%)
Language : Russian
Default : Yes
Forced : No
raw [info]: 1280x720p 1:1 @ 25/1 fps (cfr)
x264 [info]: using SAR=1/1
x264 [info]: using cpu capabilities: MMX2 SSE2Fast SSSE3 SSE4.2 AVX
x264 [info]: profile High, level 4.1
x264 [info]: frame I:940 Avg QP:16.32 size: 71181
x264 [info]: frame P:33030 Avg QP:19.07 size: 31749
x264 [info]: frame B:97880 Avg QP:20.74 size: 15541
x264 [info]: consecutive B-frames: 2.7% 4.1% 7.3% 48.9% 14.8% 13.0% 4.9% 3.4% 0.9%
x264 [info]: mb I I16..4: 5.1% 85.2% 9.7%
x264 [info]: mb P I16..4: 2.2% 21.0% 1.3% P16..4: 43.9% 17.2% 8.5% 0.2% 0.0% skip: 5.8%
x264 [info]: mb B I16..4: 0.4% 4.2% 0.2% B16..8: 37.5% 15.7% 2.9% direct:12.2% skip:26.9% L0:46.3% L1:44.1% BI: 9.6%
x264 [info]: 8x8 transform intra:86.5% inter:73.8%
x264 [info]: direct mvs spatial:98.5% temporal:1.5%
x264 [info]: coded y,uvDC,uvAC intra: 81.9% 38.0% 8.5% inter: 36.7% 24.4% 0.5%
x264 [info]: i16 v,h,dc,p: 28% 16% 7% 49%
x264 [info]: i8 v,h,dc,ddl,ddr,vr,hd,vl,hu: 15% 11% 5% 7% 11% 13% 12% 12% 14%
x264 [info]: i4 v,h,dc,ddl,ddr,vr,hd,vl,hu: 14% 11% 3% 7% 13% 15% 14% 11% 12%
x264 [info]: i8c dc,h,v,p: 62% 19% 14% 5%
x264 [info]: Weighted P-Frames: Y:16.9% UV:0.5%
x264 [info]: ref P L0: 46.2% 10.7% 15.3% 7.8% 5.8% 5.3% 4.4% 3.5% 0.9% 0.0%
x264 [info]: ref B L0: 70.3% 12.4% 7.2% 3.9% 3.3% 1.9% 1.0%
x264 [info]: ref B L1: 92.1% 7.9%
x264 [info]: kb/s:3999.55
encoded 263744 frames, 14.20 fps, 3999.55 kb/s



   Похожие торренты   Торрент   Размер 
В этой теме нет новых непрочитанных сообщений. Репортаж со свадьбы / Репортаж 3: Бытие / [REC]³ Génesis (2012) BDRip 720p от CINEMANIA | Лицензия

130 | 32

4.6 ГБ

В этой теме нет новых непрочитанных сообщений. Репортаж + Репортаж 2 / Rec + Rec 2 (2007, 2009) BDRip-AVC 720p [Дилогия]

41 | 139

4.39 ГБ

В этой теме нет новых непрочитанных сообщений. Нюрнбергский процесс / Judgment At Nuremberg (1961) HDTVRip-AVC от Тorrent-Хzona

23 | 5

2.43 ГБ

В этой теме нет новых непрочитанных сообщений. Нюрнбергский процесс / Judgment at Nuremberg (1961) BDRip 720p | D

49 | 30

16.3 ГБ

В этой теме нет новых непрочитанных сообщений. Биатлон. Специальный репортаж. Братья Бё [14.01] (2016) HDTVRip 720p

150 | 14

208.48 МБ

В этой теме нет новых непрочитанных сообщений. Репортаж со свадьбы / Репортаж 3: Бытие / [REC]³ Génesis (2012) BDRip 1080p от CINEMANIA | Лицензия

186 | 18

7.21 ГБ

В этой теме нет новых непрочитанных сообщений. Репортаж со свадьбы / Репортаж 3: Бытие / [REC]³ Génesis (2012) HDRip | D

308 | 51

1.37 ГБ




Вы не можете начинать темы
Вы не можете отвечать на сообщения
Вы не можете редактировать свои сообщения
Вы не можете удалять свои сообщения
Вы не можете добавлять вложения

Перейти:  
Для Мосгорсуда, Роскомнадзора и рекламодателей: mosgorsud-torrent[собачка]yandex.ru
 Вход
ppkBB3cker v.2 © 2008-2014 @ PPK
[ Time : 0.036s | 15 Queries | GZIP : Off ]

Торрент трекер RUTOR.IN, Не можете зайти на rutor.org? Какой новый адрес рутор? Какое зеркало рутор? Не работает rutor.org и зеркала? Тогда наш торрент специально для вас. Rutor.in неофициальное зеркало rutor. В случае если у Вас заблокирован rutor или вдруг Вы не можете на него зайти, то Вы без труда сможете скачать бесплатно и без рекламы последние новинки кино, игр, сериалов и прочего у нас, на Rutor.in. Не нужно использовать прокси, чтобы зайти на рутор, достаточно воспользоваться нашим ресурсом. Все новые фильмы, игры, сериалы, книги и музыка за 2013 и 2014 годы через торрент бесплатно. Скачивайте фильмы в хорошем качестве, игры для пк, xbox, playstation без регистрации. У нас вы найдете новые Зарубежные сериалы и Русские сериалы 2013, 2014, 2015 годов. Оставайтесь с нами, качайте любимые фильмы, игры, сериалы, книги и музыку.