img image001 image001 image001 image001 image001 image001 image001 image001 image001 image001 image001 image001 image001 image001 image001

Planets Sun Sun Sun
Статистика раздачи
Автор: Nickolas3434 | Размер: 3.58 ГБ | Добавлен: 24 ноя 2015
Раздают: 146    Качают: 143
Скачать торрент
Скачать торрент
Описание торрента

СообщениеДобавлено: 24 ноя 2015 


Информация о фильме
Название: Руссо туристо
Год выхода: 2015
Жанр: ТВ-шоу, путешествия
Режиссер: Артем Оськин
В ролях: Марина Кравец, Сергей Гореликов, Екатерина Моргунова, Леонид Моргунов
О фильме:
Правда ли, что нашего человека без труда можно вычислить за границей? Новое тревел-шоу СТС «Руссо туристо» объявляет войну туристическим стереотипам, развенчивает мифы об отдыхе за границей и предлагает только оригинальные маршруты путешествий. Ведущие проводят выходные в другой стране, чтобы проверить, так ли хороши те местные красоты, о которых «кричат» все сайты и гиды. Заодно они опробуют новые места и докажут, что за небольшие деньги, проявив немного фантазии, можно получить незабываемые эмоции и фотографии, которых точно нет у знакомых.
01 выпуск: Берлин.
02 выпуск: Прага.
03 выпуск: Вена.
04 выпуск: Брюсель.
05 выпуск: Люксембург.
06 выпуск: Лиссабон.
07 выпуск: Париж.
08 выпуск: Барселона.
09 выпуск: Амстердам.
10 выпуск: Афины.
11 выпуск: Стамбул.

Официальный сайт
Страна: Россия
Студия: ООО «ВМГ»
Продолжительность: ~00:24:00 выпуск
Перевод: Не требуется
Файл
Кодек: XviD / MP3
Качество: SATRip
Видео: MPEG4, XviD, 720x400 (16:9), 25.000 fps, 1 800 Kbps (0.250 bit/pixel)
Звук: MP3, 48.0 KHz, 2 ch, 128 Kbps, CBR
General
Complete name : 01.vypusk.avi
Format : AVI
Format/Info : Audio Video Interleave
File size : 335 MiB
Duration : 24mn 10s
Overall bit rate : 1 938 Kbps
Writing application : VirtualDubMod 1.5.10.3 | www.virtualdub-fr.org || (build 2550/release)
Writing library : VirtualDubMod build 2550/release
Video
ID : 0
Format : MPEG-4 Visual
Format profile : Advanced Simple@L5
Format settings, BVOP : 2
Format settings, QPel : No
Format settings, GMC : No warppoints
Format settings, Matrix : Default (MPEG)
Codec ID : XVID
Codec ID/Hint : XviD
Duration : 24mn 10s
Bit rate : 1 800 Kbps
Width : 720 pixels
Height : 400 pixels
Display aspect ratio : 16:9
Frame rate : 25.000 fps
Color space : YUV
Chroma subsampling : 4:2:0
Bit depth : 8 bits
Scan type : Progressive
Compression mode : Lossy
Bits/(Pixel*Frame) : 0.250
Stream size : 311 MiB (93%)
Writing library : XviD 1.2.1 (UTC 2008-12-04)
Audio
ID : 1
Format : MPEG Audio
Format version : Version 1
Format profile : Layer 3
Codec ID : 55
Codec ID/Hint : MP3
Duration : 24mn 10s
Bit rate mode : Constant
Bit rate : 128 Kbps
Channel(s) : 2 channels
Sampling rate : 48.0 KHz
Compression mode : Lossy
Stream size : 22.1 MiB (7%)
Alignment : Aligned on interleaves
Interleave, duration : 40 ms (1.00 video frame)
Interleave, preload duration : 504 ms
Writing library : LAME3.99r
Encoding settings : -m s -V 4 -q 2 -lowpass 17 -b 128



   Похожие торренты   Торрент   Размер 
В этой теме нет новых непрочитанных сообщений. Руссо туристо [01-11] (2015) SATRip

153 | 62

3.91 ГБ

В этой теме нет новых непрочитанных сообщений. Руссо туристо [01-13] (2015) SATRip

894 | 29

4.24 ГБ

В этой теме нет новых непрочитанных сообщений. Руссо туристо (Брюсель) [27.09] (2015) SATRip

99 | 8

337.44 МБ

В этой теме нет новых непрочитанных сообщений. Руссо туристо (Лиссабон) [10.10] (2015) SATRip

67 | 5

334.2 МБ

В этой теме нет новых непрочитанных сообщений. Руссо туристо (Прага) [13.09] (2015) SATRip

251 | 14

330.73 МБ

В этой теме нет новых непрочитанных сообщений. Руссо туристо (Берлин) [13.09] (2015) SATRip

216 | 15

335.02 МБ

В этой теме нет новых непрочитанных сообщений. Руссо туристо (Люксембург) [04.10] (2015) SATRip

85 | 8

332.76 МБ




Вы не можете начинать темы
Вы не можете отвечать на сообщения
Вы не можете редактировать свои сообщения
Вы не можете удалять свои сообщения
Вы не можете добавлять вложения

Перейти:  
Для Мосгорсуда, Роскомнадзора и рекламодателей: mosgorsud-torrent[собачка]yandex.ru
 Вход
ppkBB3cker v.2 © 2008-2014 @ PPK
[ Time : 0.037s | 16 Queries | GZIP : Off ]

Торрент трекер RUTOR.IN, Не можете зайти на rutor.org? Какой новый адрес рутор? Какое зеркало рутор? Не работает rutor.org и зеркала? Тогда наш торрент специально для вас. Rutor.in неофициальное зеркало rutor. В случае если у Вас заблокирован rutor или вдруг Вы не можете на него зайти, то Вы без труда сможете скачать бесплатно и без рекламы последние новинки кино, игр, сериалов и прочего у нас, на Rutor.in. Не нужно использовать прокси, чтобы зайти на рутор, достаточно воспользоваться нашим ресурсом. Все новые фильмы, игры, сериалы, книги и музыка за 2013 и 2014 годы через торрент бесплатно. Скачивайте фильмы в хорошем качестве, игры для пк, xbox, playstation без регистрации. У нас вы найдете новые Зарубежные сериалы и Русские сериалы 2013, 2014, 2015 годов. Оставайтесь с нами, качайте любимые фильмы, игры, сериалы, книги и музыку.