img image001 image001 image001 image001 image001 image001 image001 image001 image001 image001 image001 image001 image001 image001 image001

Planets Sun Sun Sun
Статистика раздачи
Автор: Nickolas3434 | Размер: 1.55 ГБ | Добавлен: 25 ноя 2015
Раздают: 5    Качают: 3
Скачать торрент
Скачать торрент
Описание торрента

СообщениеДобавлено: 25 ноя 2015 


Страна: Россия
Жанр: Pop
Продолжительность: 00:59:51
Год выпуска: 2015 г.
Треклист:
1.С молитвой
2.Свеча горела
3.В лесу прифронтовом
4.Ветрено
5.Девушка пела в церковном хоре
6.Донская
7.Ямщик,не гони лошадей
8.Русалка
9.Россия
Источник: собственный рип, поток НТВ+ без перекодировки.
Описание:
"К нам приехал" - музыкальная телепрограмма, дарящая зрителям радость встречи с полюбившимися исполнителями авторской песни, а также знакомящая их с новыми музыкальными дарованиями и талантами, которые в прямом эфире отвечают на вопросы и исполняют свои лучшие и совершенно новые песни.
Сегодня гости программы - Злата Дзарданова и Евгений Суслин.
Качество: DVB
Контейнер: MPG
Видео кодек: MPEG2
Аудио кодек: MP2
Видео: MPEG2 720x576 4:3 3 452 Kbps 25.000 fps
Аудио: MP2 192 Kbps 48.0 KHz 2 channels
Zlata_19.11.15.mpg
Format : MPEG-PS
File size : 1.55 GiB
Duration : 59mn 51s
Overall bit rate mode : Variable
Overall bit rate : 3 718 Kbps
Writing library : (dvd5: Jun 16 2014)
Video
ID : 224 (0xE0)
Format : MPEG Video
Format version : Version 2
Format profile : Main@Main
Format settings, BVOP : Yes
Format settings, Matrix : Custom
Format settings, GOP : Variable
Format settings, picture st : Frame
Duration : 59mn 51s
Bit rate mode : Variable
Bit rate : 3 452 Kbps
Maximum bit rate : 8 000 Kbps
Width : 720 pixels
Height : 576 pixels
Display aspect ratio : 4:3
Frame rate : 25.000 fps
Standard : PAL
Color space : YUV
Chroma subsampling : 4:2:0
Bit depth : 8 bits
Scan type : Interlaced
Scan order : Top Field First
Compression mode : Lossy
Bits/(Pixel*Frame) : 0.333
Time code of first frame : 00:00:00:00
Time code source : Group of pictures header
GOP, Open/Closed : Open
Stream size : 1.44 GiB (93%)
Writing library : (dvd5: Jun 16 2014)
Audio
ID : 192 (0xC0)
Format : MPEG Audio
Format version : Version 1
Format profile : Layer 2
Duration : 59mn 51s
Bit rate mode : Constant
Bit rate : 192 Kbps
Channel(s) : 2 channels
Sampling rate : 48.0 KHz
Compression mode : Lossy
Stream size : 82.2 MiB (5%)



   Похожие торренты   Торрент   Размер 
В этой теме нет новых непрочитанных сообщений. Злата Дзарданова - Магия любовь (2012) MP3

21 | 1

134.23 МБ

В этой теме нет новых непрочитанных сообщений. К нам приехал... - Зара [10.09] (2015) WEBRip-AVC

10 | 16

391.03 МБ

В этой теме нет новых непрочитанных сообщений. К нам приехал - Сергей Волчков (2015) DVB

181 | 13

1.38 ГБ

В этой теме нет новых непрочитанных сообщений. К нам приехал... - Сергей Беликов [17.12] (2015) DVB

18 | 1

754.47 МБ

В этой теме нет новых непрочитанных сообщений. Небослов - Дядя Ринат приехал (2015) MP3

33 | 7

122.32 МБ

В этой теме нет новых непрочитанных сообщений. К нам приехал... - Группа «После 11» [01.10] (2015) IPTVRip-AVC

7 | 5

698.2 МБ

В этой теме нет новых непрочитанных сообщений. К нам приехал... - Павел Слободкин и группа «Веселые ребята» [15.10] (2015) DVB

43 | 5

1.68 ГБ




Вы не можете начинать темы
Вы не можете отвечать на сообщения
Вы не можете редактировать свои сообщения
Вы не можете удалять свои сообщения
Вы не можете добавлять вложения

Перейти:  
Для Мосгорсуда, Роскомнадзора и рекламодателей: mosgorsud-torrent[собачка]yandex.ru
 Вход
ppkBB3cker v.2 © 2008-2014 @ PPK
[ Time : 0.038s | 17 Queries | GZIP : Off ]

cron