img image001 image001 image001 image001 image001 image001 image001 image001 image001 image001 image001 image001 image001 image001 image001

Planets Sun Sun Sun
Статистика раздачи
Автор: Nickolas3434 | Размер: 1.27 ГБ | Добавлен: 02 дек 2015
Раздают: 20    Качают: 5
Скачать торрент
Скачать торрент
Описание торрента

СообщениеДобавлено: 02 дек 2015 

Россия без Террора. Завербованные Смертью


#77
Год выпуска: 2015
Страна: Россия
Студия: Россия HD
Жанр: Документальный
Продолжительность: 0:43:13
Режиссер: Андрей Гарянин

Описание: Каким образом две тысячи россиян оказались в рядах боевиков на Ближнем Востоке? Кому выгодно существование международных террористических организаций и кто сумеет их остановить?

Автор рипа: lrn
Автор записи: GeneralFilm
Сэмпл: sendfile

Тип релиза: HDTVRip 720p
Контейнер: MKV
Видео: 1280x720 (16:9), 25,000 fps, H264, ~4000 kbps avg, ~0.174 bit/pixel
Аудио: 48 kHz, AC3 Dolby Digital, 2/0 (L,R) ch, ~192.00 kbps avg

General
Unique ID : 204885730778080554992689265043466235063 (0x9A238E70C6836393952D74EC01A62CB7)
Complete name : E:uTorrent.TempTempRossiya.bez.Terrora.Zaverbovannie.Smertyu.2015.HDTV.720p.x264-lrn.mkv
Format : Matroska
Format version : Version 4 / Version 2
File size : 1.27 GiB
Duration : 43mn 13s
Overall bit rate : 4 193 Kbps
Movie name : Rossiya.bez.Terrora.Zaverbovannie.Smertyu.2015.HDTV.720p.x264-lrn
Encoded date : UTC 2010-02-22 21:41:31
Writing application : mkvmerge v5.9.0 ('On The Loose') built on Dec 9 2012 15:37:01
Writing library : libebml v1.3.0 + libmatroska v1.4.0
Video
ID : 1
Format : AVC
Format/Info : Advanced Video Codec
Format profile : High@L4.1
Format settings, CABAC : Yes
Format settings, ReFrames : 8 frames
Codec ID : V_MPEG4/ISO/AVC
Duration : 43mn 13s
Bit rate : 4 000 Kbps
Width : 1 280 pixels
Height : 720 pixels
Display aspect ratio : 16:9
Frame rate mode : Constant
Frame rate : 25.000 fps
Color space : YUV
Chroma subsampling : 4:2:0
Bit depth : 8 bits
Scan type : Progressive
Bits/(Pixel*Frame) : 0.174
Stream size : 1.18 GiB (93%)
Writing library : x264 core 142 r2479 dd79a61
Encoding settings : cabac=1 / ref=8 / deblock=1:-3:-3 / analyse=0x3:0x133 / me=umh / subme=9 / psy=1 / psy_rd=1.00:0.00 / mixed_ref=1 / me_range=32 / chroma_me=1 / trellis=2 / 8x8dct=1 / cqm=0 / deadzone=21,11 / fast_pskip=1 / chroma_qp_offset=-2 / threads=12 / lookahead_threads=2 / sliced_threads=0 / nr=0 / decimate=1 / interlaced=0 / bluray_compat=0 / constrained_intra=0 / bframes=8 / b_pyramid=2 / b_adapt=2 / b_bias=0 / direct=3 / weightb=1 / open_gop=0 / weightp=2 / keyint=250 / keyint_min=25 / scenecut=40 / intra_refresh=0 / rc_lookahead=50 / rc=2pass / mbtree=1 / bitrate=4000 / ratetol=1.0 / qcomp=0.60 / qpmin=0 / qpmax=69 / qpstep=4 / cplxblur=20.0 / qblur=0.5 / vbv_maxrate=62500 / vbv_bufsize=78125 / nal_hrd=none / filler=0 / ip_ratio=1.40 / aq=1:1.00
Default : Yes
Forced : No
Color range : Limited
Color primaries : BT.709
Transfer characteristics : BT.709
Matrix coefficients : BT.709
Audio
ID : 2
Format : AC-3
Format/Info : Audio Coding 3
Mode extension : CM (complete main)
Format settings, Endianness : Big
Codec ID : A_AC3
Duration : 43mn 13s
Bit rate mode : Constant
Bit rate : 192 Kbps
Channel(s) : 2 channels
Channel positions : Front: L R
Sampling rate : 48.0 KHz
Compression mode : Lossy
Delay relative to video : -80ms
Stream size : 59.4 MiB (5%)
Language : Russian
Default : Yes
Forced : No
raw [info]: 1280x720p 1:1 @ 25/1 fps (cfr)
x264 [info]: using SAR=1/1
x264 [info]: using cpu capabilities: MMX2 SSE2Fast SSSE3 SSE4.2 AVX
x264 [info]: profile High, level 4.1
x264 [info]: frame I:484 Avg QP:17.14 size: 97426
x264 [info]: frame P:14215 Avg QP:19.78 size: 38099
x264 [info]: frame B:50146 Avg QP:21.75 size: 14119
x264 [info]: consecutive B-frames: 2.1% 3.1% 6.1% 22.5% 22.5% 30.7% 5.9% 5.7% 1.3%
x264 [info]: mb I I16..4: 4.0% 85.5% 10.5%
x264 [info]: mb P I16..4: 2.4% 14.2% 1.2% P16..4: 45.8% 20.6% 11.6% 0.2% 0.0% skip: 4.1%
x264 [info]: mb B I16..4: 0.2% 1.3% 0.1% B16..8: 40.1% 9.2% 2.1% direct: 9.9% skip:37.1% L0:42.7% L1:48.5% BI: 8.8%
x264 [info]: 8x8 transform intra:81.0% inter:70.5%
x264 [info]: direct mvs spatial:98.9% temporal:1.1%
x264 [info]: coded y,uvDC,uvAC intra: 78.3% 72.2% 27.8% inter: 33.5% 27.8% 0.8%
x264 [info]: i16 v,h,dc,p: 30% 19% 7% 44%
x264 [info]: i8 v,h,dc,ddl,ddr,vr,hd,vl,hu: 13% 10% 6% 9% 12% 14% 12% 12% 12%
x264 [info]: i4 v,h,dc,ddl,ddr,vr,hd,vl,hu: 14% 9% 3% 8% 14% 16% 13% 11% 11%
x264 [info]: i8c dc,h,v,p: 36% 27% 19% 18%
x264 [info]: Weighted P-Frames: Y:7.0% UV:0.6%
x264 [info]: ref P L0: 46.3% 12.3% 16.6% 6.7% 5.7% 4.7% 4.2% 3.0% 0.5% 0.0%
x264 [info]: ref B L0: 80.1% 10.8% 4.0% 2.0% 1.7% 0.9% 0.5%
x264 [info]: ref B L1: 93.4% 6.6%
x264 [info]: kb/s:3999.43
encoded 64849 frames, 14.20 fps, 3999.43 kb/s



   Похожие торренты   Торрент   Размер 
В этой теме нет новых непрочитанных сообщений. Россия без террора. Завербованные смертью (2015) HDTVRip от GeneralFilm

306 | 43

618.3 МБ

В этой теме нет новых непрочитанных сообщений. Россия без террора. Завербованные смертью (2015) HDTV 1080i от GeneralFilm

71 | 17

2.58 ГБ

В этой теме нет новых непрочитанных сообщений. Отмеченный смертью / Помеченный смертью / Нико-3 / Marked for Death (1990) HDTVRip 720p

141 | 14

4.83 ГБ

В этой теме нет новых непрочитанных сообщений. Хоккей. Молодёжный чемпионат мира 2015 (U-20), Финал Канада - Россия [Россия HD] [06.01] (2015) HDTVRip 720p | 50fps

180 | 19

3.25 ГБ

В этой теме нет новых непрочитанных сообщений. Эхо террора / Zankyou no Terror [01 из 11] (2014) HDTVRip 720p | AniFilm

85 | 14

436.62 МБ

В этой теме нет новых непрочитанных сообщений. Эхо Террора / Zankyou no Terror [01-03 из 11] (2014) HDTVRip 720p | AniDub

17 | 13

1.13 ГБ

В этой теме нет новых непрочитанных сообщений. Эхо террора / Zankyou no Terror [01-02 из 11] (2014) HDTVRip 720p | AniFilm

64 | 30

798.66 МБ




Вы не можете начинать темы
Вы не можете отвечать на сообщения
Вы не можете редактировать свои сообщения
Вы не можете удалять свои сообщения
Вы не можете добавлять вложения

Перейти:  
Для Мосгорсуда, Роскомнадзора и рекламодателей: mosgorsud-torrent[собачка]yandex.ru
 Вход
ppkBB3cker v.2 © 2008-2014 @ PPK
[ Time : 0.104s | 16 Queries | GZIP : Off ]

Торрент трекер RUTOR.IN, Не можете зайти на rutor.org? Какой новый адрес рутор? Какое зеркало рутор? Не работает rutor.org и зеркала? Тогда наш торрент специально для вас. Rutor.in неофициальное зеркало rutor. В случае если у Вас заблокирован rutor или вдруг Вы не можете на него зайти, то Вы без труда сможете скачать бесплатно и без рекламы последние новинки кино, игр, сериалов и прочего у нас, на Rutor.in. Не нужно использовать прокси, чтобы зайти на рутор, достаточно воспользоваться нашим ресурсом. Все новые фильмы, игры, сериалы, книги и музыка за 2013 и 2014 годы через торрент бесплатно. Скачивайте фильмы в хорошем качестве, игры для пк, xbox, playstation без регистрации. У нас вы найдете новые Зарубежные сериалы и Русские сериалы 2013, 2014, 2015 годов. Оставайтесь с нами, качайте любимые фильмы, игры, сериалы, книги и музыку.
cron