img image001 image001 image001 image001 image001 image001 image001 image001 image001 image001 image001 image001 image001 image001 image001

Planets Sun Sun Sun
Статистика раздачи
Автор: Nickolas3434 | Размер: 3.54 ГБ | Добавлен: 07 дек 2015
Раздают: 25    Качают: 8
Скачать торрент
Скачать торрент
Описание торрента

СообщениеДобавлено: 07 дек 2015 


Информация о фильме
Название: Испытание [01-08 из 8]
Год выхода: 2014
Жанр: Документальный
Режиссер: П. Подберезский, В. Биндюков, А. Вешторт
О фильме:
Восьмисерийный цикл документальных фильмов, посвящённый 70-летию освобождения Беларуси от немецко-фашистских захватчиков.
В основе сюжета – события, которые произошли на оккупированной фашистами белорусской земле: оборона Брестской крепости, организация партизанского движения, спасение детей из концентрационного лагеря, противостояние плану «Ост», еврейские гетто и другие. При этом темы раскрываются с использованием малоизвестных фактов и уникальных документов, а зрителям предлагается несколько версий трактовки тех событий современными историками.
Доп. информация: Запись потока *.ts с наземного цифрового телеканала "Беларусь 3", ремукс в *.mkv программой VideoReDo.
Сведение звука без перекодировки mkvtoolnix
Испытание_01_Крепость_2014
Испытание_02_Военврач второго ранга_2014
Испытание_03_Иди и сражайся_2014
Испытание_04_Площадь рабов-территория борьбы_2014
Испытание_05_Юные мстители_2014
Испытание_06_Кровь для Вермахта_2014
Испытание_07_Крестный путь_2014
Испытание_08_План ОСТ_2014.mkv


Страна: Республика Беларусь
Студия: Беларусь 1, Воен-ТВ
Количество серий: 8
Продолжительность: ~00:26:00
Перевод: Не требуется
Сэмпл: http://multi-up.com/1078232
Файл
Кодек: AVC (H264)
Качество: DVB
Видео: MPEG4 Video (H264) 720x576 (49:36) 25fps, 2 098 Kbps
Звук: MPEG Audio 48000Hz stereo 256kbps
Код:
General
Unique ID                      : 226640127388324243145882113505330903605 (0xAA814D00D0BA459380DB19887E56BA35)
Complete name                  : D:Новая  земля 2�01 Документальный фильмыВОВ и другие войныИспытание (2014)Испытание (2014)Испытание_01_Крепость_2014.mkv
Format                         : Matroska
Format version                 : Version 4 / Version 2
File size                      : 450 MiB
Duration                       : 26mn 13s
Overall bit rate               : 2 402 Kbps
Encoded date                   : UTC 2015-12-05 13:46:45
Writing application            : mkvmerge v8.5.1 ('Where you lead I will follow') 32bit
Writing library                : libebml v1.3.3 + libmatroska v1.4.4
Video
ID                             : 1
Format                         : AVC
Format/Info                    : Advanced Video Codec
Format profile                 : Main@L3.0
Format settings, CABAC         : Yes
Format settings, ReFrames      : 4 frames
Codec ID                       : V_MPEG4/ISO/AVC
Duration                       : 26mn 13s
Bit rate                       : 2 098 Kbps
Width                          : 720 pixels
Height                         : 576 pixels
Display aspect ratio           : 4:3
Original display aspect ratio  : 4:3
Frame rate mode                : Constant
Frame rate                     : 25.000 fps
Standard                       : PAL
Color space                    : YUV
Chroma subsampling             : 4:2:0
Bit depth                      : 8 bits
Scan type                      : MBAFF
Scan order                     : Top Field First
Bits/(Pixel*Frame)             : 0.202
Stream size                    : 393 MiB (87%)
Default                        : Yes
Forced                         : No
Color primaries                : BT.601 PAL
Transfer characteristics       : BT.470 System B, BT.470 System G
Matrix coefficients            : BT.601
Color range                    : Limited
DURATION                       : 00:26:12.800000000
NUMBER_OF_FRAMES               : 39320
NUMBER_OF_BYTES                : 421603916
_STATISTICS_WRITING_APP        : mkvmerge v8.5.1 ('Where you lead I will follow') 32bit
_STATISTICS_WRITING_DATE_UTC   : 2015-12-05 13:46:45
_STATISTICS_TAGS               : BPS DURATION NUMBER_OF_FRAMES NUMBER_OF_BYTES
Audio
ID                             : 2
Format                         : MPEG Audio
Format version                 : Version 1
Format profile                 : Layer 2
Codec ID                       : A_MPEG/L2
Codec ID/Hint                  : MP2
Duration                       : 26mn 13s
Bit rate mode                  : Constant
Bit rate                       : 256 Kbps
Channel(s)                     : 2 channels
Sampling rate                  : 48.0 KHz
Compression mode               : Lossy
Delay relative to video        : 250ms
Stream size                    : 48.0 MiB (11%)
Language                       : English
Default                        : Yes
Forced                         : No
DURATION                       : 00:26:12.792000000
NUMBER_OF_FRAMES               : 65533
NUMBER_OF_BYTES                : 50329344
_STATISTICS_WRITING_APP        : mkvmerge v8.5.1 ('Where you lead I will follow') 32bit
_STATISTICS_WRITING_DATE_UTC   : 2015-12-05 13:46:45
_STATISTICS_TAGS               : BPS DURATION NUMBER_OF_FRAMES NUMBER_OF_BYTES
 




   Похожие торренты   Торрент   Размер 
В этой теме нет новых непрочитанных сообщений. Испытание (2014) WEB-DLRip-AVC от New-Team

131 | 8

1.45 ГБ

В этой теме нет новых непрочитанных сообщений. Испытание (2014) WEB-DLRip от New-Team

41 | 9

743.51 МБ

В этой теме нет новых непрочитанных сообщений. Испытание (2014) WEB-DLRip от Scarabey | iTunes

171 | 9

743.53 МБ

В этой теме нет новых непрочитанных сообщений. Испытание (2014) WEB-DLRip от New-Team | Лицензия

136 | 9

1.45 ГБ

В этой теме нет новых непрочитанных сообщений. Испытание (2014) WEB-DLRip от Scarabey | iTunes

94 | 8

1.45 ГБ

В этой теме нет новых непрочитанных сообщений. Испытание (2014) WEB-DLRip 720p | iTunes

94 | 5

2.88 ГБ

В этой теме нет новых непрочитанных сообщений. Декабристы. Испытание Сибирью (2014) HDTVRip от FilmRus

381 | 3

749.39 МБ




Вы не можете начинать темы
Вы не можете отвечать на сообщения
Вы не можете редактировать свои сообщения
Вы не можете удалять свои сообщения
Вы не можете добавлять вложения

Перейти:  
Для Мосгорсуда, Роскомнадзора и рекламодателей: mosgorsud-torrent[собачка]yandex.ru
 Вход
ppkBB3cker v.2 © 2008-2014 @ PPK
[ Time : 0.051s | 15 Queries | GZIP : On ]

Торрент трекер RUTOR.IN, Не можете зайти на rutor.org? Какой новый адрес рутор? Какое зеркало рутор? Не работает rutor.org и зеркала? Тогда наш торрент специально для вас. Rutor.in неофициальное зеркало rutor. В случае если у Вас заблокирован rutor или вдруг Вы не можете на него зайти, то Вы без труда сможете скачать бесплатно и без рекламы последние новинки кино, игр, сериалов и прочего у нас, на Rutor.in. Не нужно использовать прокси, чтобы зайти на рутор, достаточно воспользоваться нашим ресурсом. Все новые фильмы, игры, сериалы, книги и музыка за 2013 и 2014 годы через торрент бесплатно. Скачивайте фильмы в хорошем качестве, игры для пк, xbox, playstation без регистрации. У нас вы найдете новые Зарубежные сериалы и Русские сериалы 2013, 2014, 2015 годов. Оставайтесь с нами, качайте любимые фильмы, игры, сериалы, книги и музыку.