img image001 image001 image001 image001 image001 image001 image001 image001 image001 image001 image001 image001 image001 image001 image001

Planets Sun Sun Sun
Статистика раздачи
Автор: Nickolas3434 | Размер: 915.41 МБ | Добавлен: 07 дек 2015
Раздают: 19    Качают: 1
Скачать торрент
Скачать торрент
Описание торрента

СообщениеДобавлено: 07 дек 2015 


Информация о фильме
Название: Список Киселева. Спасённые из ада
Год выхода: 2008
Жанр: Документальный
Режиссер: Юрий Малюгин
О фильме:
6 декабря 2013 года исполнилось 100 лет со дня рождения Николая Киселёва. Мало кто знает, что этот человек совершил подвиг во время Великой Отечественной войны.
Николай Киселёв — командир Красной Армии, бежавший из плена и оказавшийся в 1941 году на оккупированной территории, по приказу белорусского партизанского командования вывел за линию фронта 218 жителей еврейского местечка Долгиново. Он спас им жизнь, совершив в тяжелейших условиях переход по тылам немецко-фашистских войск на расстояние свыше полутора тысяч километров.
Дети, которых спас Николай Киселёв, помогли создать одну из самых честных документальных лент. В этом фильме историю долгиновского холокоста и исхода оставшихся евреев рассказывают четырнадцать бывших детей из группы Киселёва — взрослые уже умерли. Воспоминания свидетелей геноцида — самое жуткое из того, что может услышать человек. Никакие триллеры и никакие истории о живых мертвецах, исчадиях преисподней и чудовищных пришельцах не производят столь гнетущего и столь длительного впечатления. Если в ХХ веке после рождения Христа одни люди могли творить такое с другими людьми, то чего стоит человеческая цивилизация?
Дело не только в том, что люди вспоминают, а ещё и в том, как вспоминают. Есть ужас, о котором они говорят спокойно. Есть ужас, который заставляет их голоса дрожать и через 70 лет. Есть ужас, который заставляет их закрыть глаза. И почти у каждого есть ужас, о котором он не может рассказать, но который безмолвно отражается на его лице.
Про каждого из 218 евреев «Списка Киселёва» можно сказать то же, что флорентинцы говорили про Данте: «Он был в аду и вышел оттуда». Все они вышли из ада, только их ад был страшнее дантовского.
Героизм Киселёва оценён по достоинству, к сожалению, не в России, а в Израиле, где Николаю Киселёву присвоено звание Праведника народов мира наряду с Раулем Валленбергом и Оскаром Шиндлером. Его имя выбито на стене Почёта в Саду Праведников мемориала Яд ва-Шем в Иерусалиме. Николая Киселёва уже нет в живых, но те, кому он спас жизнь, до сих пор, вспоминая этого человека, сравнивают его с Моисеем.
Создателям фильма удалось раскрыть обстоятельства этого героического рейда, не имеющего аналогов в отечественной и мировой военной истории. Реальные участники событий являются героями документальной кинокартины. В настоящее время они проживают в разных странах.
https://ru.wikipedia.org/wiki/%D0%A1%D0 ... 0%B2%D0%B0
Доп. информация: Запись потока *.ts с наземного цифрового телеканала "Беларусь 3", ремукс в *.mkv программой VideoReDo.
Сведение звука без перекодировки mkvtoolnix

Страна: Российская Федерация
Студия: АБ-ТВ
Продолжительность: 00:51:59
Перевод: Не требуется
Файл
Кодек: AVC (H264)
Качество: BDRip
Видео: MPEG4 Video (H264) 720x576 (49:36) 25fps, 2 157 Kbps
Звук: MPEG Audio 48000Hz stereo 256kbps
Семпл
Код:
General
Unique ID                      : 242550254181709894471560895423501208132 (0xB6797AD134B75A52BD97ED2952AA8A44)
Complete name                  : D:Новая  земля 2\001 Документальный фильмыВОВ и другие войныСписок Киселева. Спасенные из ада (2008)Список Киселева. Спасенные из ада (2008).mkv
Format                         : Matroska
Format version                 : Version 4 / Version 2
File size                      : 915 MiB
Duration                       : 51mn 58s
Overall bit rate               : 2 462 Kbps
Encoded date                   : UTC 2015-12-05 15:17:27
Writing application            : mkvmerge v8.5.1 ('Where you lead I will follow') 32bit
Writing library                : libebml v1.3.3 + libmatroska v1.4.4
DURATION                       : 00:51:58.608000000
NUMBER_OF_FRAMES               : 129942
NUMBER_OF_BYTES                : 99795456
_STATISTICS_WRITING_APP        : mkvmerge v8.5.1 ('Where you lead I will follow') 32bit
_STATISTICS_WRITING_DATE_UTC   : 2015-12-05 15:17:27
_STATISTICS_TAGS               : BPS DURATION NUMBER_OF_FRAMES NUMBER_OF_BYTES
Video
ID                             : 1
Format                         : AVC
Format/Info                    : Advanced Video Codec
Format profile                 : Main@L3.0
Format settings, CABAC         : Yes
Format settings, ReFrames      : 4 frames
Codec ID                       : V_MPEG4/ISO/AVC
Duration                       : 51mn 58s
Bit rate                       : 2 157 Kbps
Width                          : 720 pixels
Height                         : 576 pixels
Display aspect ratio           : 4:3
Original display aspect ratio  : 4:3
Frame rate mode                : Constant
Frame rate                     : 25.000 fps
Standard                       : PAL
Color space                    : YUV
Chroma subsampling             : 4:2:0
Bit depth                      : 8 bits
Scan type                      : MBAFF
Scan order                     : Top Field First
Bits/(Pixel*Frame)             : 0.208
Stream size                    : 802 MiB (88%)
Default                        : Yes
Forced                         : No
Color primaries                : BT.601 PAL
Transfer characteristics       : BT.470 System B, BT.470 System G
Matrix coefficients            : BT.601
Color range                    : Limited
Audio
ID                             : 2
Format                         : MPEG Audio
Format version                 : Version 1
Format profile                 : Layer 2
Codec ID                       : A_MPEG/L2
Codec ID/Hint                  : MP2
Duration                       : 51mn 58s
Bit rate mode                  : Constant
Bit rate                       : 256 Kbps
Channel(s)                     : 2 channels
Sampling rate                  : 48.0 KHz
Compression mode               : Lossy
Delay relative to video        : 250ms
Stream size                    : 95.2 MiB (10%)
Language                       : English
Default                        : Yes
Forced                         : No
 




   Похожие торренты   Торрент   Размер 
В этой теме нет новых непрочитанных сообщений. Киселева Т.Г., Красильников Ю.Д. - Социально-культурная деятельность (2004) PDF

17 | 2

120.35 МБ

В этой теме нет новых непрочитанных сообщений. Спасенные из рабства (2014) IPTVRip

212 | 52

294.64 МБ

В этой теме нет новых непрочитанных сообщений. Ганнопольское. Итоги недели без Евгения Киселева [09.08] (2015) WEBRip

63 | 0

110.2 МБ

В этой теме нет новых непрочитанных сообщений. Славянский Базар 2008. Беспокойное сердце - Юбилейный вечер Игоря Лученка (2008) DVB от AND03AND

10 | 1

1.42 ГБ

В этой теме нет новых непрочитанных сообщений. Славянский базар 2008. Антология (2008) DVB от AND03AND

1 | 1

996.52 МБ

В этой теме нет новых непрочитанных сообщений. Кремль 1812. Спасенные сокровища (2012) HDTVRip от Filmoff CLUB

1 | 2

599.85 МБ

В этой теме нет новых непрочитанных сообщений. Кремль 1812. Спасенные сокровища (2012) HDTVRip 720p от Filmoff CLUB

1 | 3

1.02 ГБ




Вы не можете начинать темы
Вы не можете отвечать на сообщения
Вы не можете редактировать свои сообщения
Вы не можете удалять свои сообщения
Вы не можете добавлять вложения

Перейти:  
Для Мосгорсуда, Роскомнадзора и рекламодателей: mosgorsud-torrent[собачка]yandex.ru
 Вход
ppkBB3cker v.2 © 2008-2014 @ PPK
[ Time : 0.064s | 16 Queries | GZIP : Off ]

Торрент трекер RUTOR.IN, Не можете зайти на rutor.org? Какой новый адрес рутор? Какое зеркало рутор? Не работает rutor.org и зеркала? Тогда наш торрент специально для вас. Rutor.in неофициальное зеркало rutor. В случае если у Вас заблокирован rutor или вдруг Вы не можете на него зайти, то Вы без труда сможете скачать бесплатно и без рекламы последние новинки кино, игр, сериалов и прочего у нас, на Rutor.in. Не нужно использовать прокси, чтобы зайти на рутор, достаточно воспользоваться нашим ресурсом. Все новые фильмы, игры, сериалы, книги и музыка за 2013 и 2014 годы через торрент бесплатно. Скачивайте фильмы в хорошем качестве, игры для пк, xbox, playstation без регистрации. У нас вы найдете новые Зарубежные сериалы и Русские сериалы 2013, 2014, 2015 годов. Оставайтесь с нами, качайте любимые фильмы, игры, сериалы, книги и музыку.
cron