img image001 image001 image001 image001 image001 image001 image001 image001 image001 image001 image001 image001 image001 image001 image001

Planets Sun Sun Sun
Статистика раздачи
Автор: Nickolas3434 | Размер: 1.19 ГБ | Добавлен: 13 дек 2015
Раздают: 31    Качают: 2
Скачать торрент
Скачать торрент
Описание торрента

СообщениеДобавлено: 13 дек 2015 

Теория Заговора. Паленый Алкоголь


#77
Год выпуска: 12.12.2015
Страна: Россия
Студия: Первый Канал HD
Жанр: Документальный
Продолжительность: 0:38:43
Автор и руководитель цикла: Андрей Сычев
Режиссеры: Алексей Булейко, Кирилл Ващенко
Ведущий: Михаил Мамаев

Описание: Минздрав предупреждает: чрезмерное употребление алкоголя вредит вашему здоровью. Минздрав, конечно, имеет в виду качественный алкоголь. А сколько на полках такого, что вообще лучше никогда в жизни даже не пробовать… Все бутылки условно можно разделить на три вида: легальный алкоголь, фальсификат и суррогат. Покупая "пол-литра", мы легко можем нарваться на любой из них. Это уж кому как повезет! С легальным алкоголем все понятно. Тут дело вкуса, что покупать - решать только вам. А мы расскажем, как не купить фальсификат и суррогат.

Автор рипа: lrn
Автор записи: GeneralFilm
Сэмпл: sendfile

Качество: HDTVRip 720p
Формат: MKV
Видео: 1280x720 (16:9), 25,000 fps, H264, ~4000 kbps avg, ~0.174 bit/pixel
Аудио: 48 kHz, AC3 Dolby Digital, 3/2 (L,C,R,l,r) + LFE ch, ~384.00 kbps avg

General
Unique ID : 191234101570744814026904223982569986496 (0x8FDE5927966C9B6B9631680C776119C0)
Complete name : E:uTorrent.TempTempTeoriya.Zagovora.(2015.12.12).HDTV.720p.x264-lrn.mkv
Format : Matroska
Format version : Version 4 / Version 2
File size : 1.19 GiB
Duration : 38mn 43s
Overall bit rate : 4 385 Kbps
Movie name : Teoriya.Zagovora.(2015.12.12).HDTV.720p.x264-lrn
Encoded date : UTC 2010-02-22 21:41:31
Writing application : mkvmerge v5.9.0 ('On The Loose') built on Dec 9 2012 15:37:01
Writing library : libebml v1.3.0 + libmatroska v1.4.0
Video
ID : 1
Format : AVC
Format/Info : Advanced Video Codec
Format profile : High@L4.1
Format settings, CABAC : Yes
Format settings, ReFrames : 8 frames
Codec ID : V_MPEG4/ISO/AVC
Duration : 38mn 43s
Bit rate : 4 000 Kbps
Width : 1 280 pixels
Height : 720 pixels
Display aspect ratio : 16:9
Frame rate mode : Constant
Frame rate : 25.000 fps
Color space : YUV
Chroma subsampling : 4:2:0
Bit depth : 8 bits
Scan type : Progressive
Bits/(Pixel*Frame) : 0.174
Stream size : 1.06 GiB (89%)
Writing library : x264 core 148 r2638 7599210
Encoding settings : cabac=1 / ref=8 / deblock=1:-3:-3 / analyse=0x3:0x133 / me=umh / subme=9 / psy=1 / psy_rd=1.00:0.00 / mixed_ref=1 / me_range=32 / chroma_me=1 / trellis=2 / 8x8dct=1 / cqm=0 / deadzone=21,11 / fast_pskip=1 / chroma_qp_offset=-2 / threads=12 / lookahead_threads=2 / sliced_threads=0 / nr=0 / decimate=1 / interlaced=0 / bluray_compat=0 / constrained_intra=0 / bframes=8 / b_pyramid=2 / b_adapt=2 / b_bias=0 / direct=3 / weightb=1 / open_gop=0 / weightp=2 / keyint=250 / keyint_min=25 / scenecut=40 / intra_refresh=0 / rc_lookahead=50 / rc=2pass / mbtree=1 / bitrate=4000 / ratetol=1.0 / qcomp=0.60 / qpmin=0 / qpmax=69 / qpstep=4 / cplxblur=20.0 / qblur=0.5 / vbv_maxrate=62500 / vbv_bufsize=78125 / nal_hrd=none / filler=0 / ip_ratio=1.40 / aq=1:1.00
Default : Yes
Forced : No
Statistics Tags Issue : mkvmerge v8.5.2 ('Crosses') 32bit 2015-12-12 16:35:35 / mkvmerge v5.9.0 ('On The Loose') built on Dec 9 2012 15:37:01 2010-02-22 21:41:31
FromStats_BitRate : 3999558
FromStats_Duration : 00:38:43.800000000
FromStats_FrameCount : 58095
FromStats_StreamSize : 1161771691
Audio
ID : 2
Format : AC-3
Format/Info : Audio Coding 3
Mode extension : CM (complete main)
Format settings, Endianness : Big
Codec ID : A_AC3
Duration : 38mn 43s
Bit rate mode : Constant
Bit rate : 384 Kbps
Channel(s) : 6 channels
Channel positions : Front: L C R, Side: L R, LFE
Sampling rate : 48.0 KHz
Frame rate : 31.250 fps (1536 spf)
Compression mode : Lossy
Stream size : 106 MiB (9%)
Language : Russian
Default : Yes
Forced : No
raw [info]: 1280x720p 1:1 @ 25/1 fps (cfr)
x264 [info]: using SAR=1/1
x264 [info]: using cpu capabilities: MMX2 SSE2Fast SSSE3 SSE4.2 AVX
x264 [info]: profile High, level 4.1
x264 [info]: frame I:639 Avg QP:13.07 size:126961
x264 [info]: frame P:15778 Avg QP:15.82 size: 41313
x264 [info]: frame B:41678 Avg QP:18.08 size: 10289
x264 [info]: consecutive B-frames: 3.1% 4.6% 5.7% 77.0% 4.3% 4.4% 0.5% 0.4% 0.0%
x264 [info]: mb I I16..4: 6.4% 73.5% 20.2%
x264 [info]: mb P I16..4: 2.5% 13.0% 1.5% P16..4: 39.5% 22.1% 13.3% 0.7% 0.2% skip: 7.2%
x264 [info]: mb B I16..4: 0.3% 1.4% 0.2% B16..8: 34.1% 9.2% 2.0% direct: 8.1% skip:44.7% L0:39.4% L1:44.2% BI:16.4%
x264 [info]: 8x8 transform intra:75.7% inter:57.7%
x264 [info]: direct mvs spatial:97.9% temporal:2.1%
x264 [info]: coded y,uvDC,uvAC intra: 76.3% 86.1% 60.2% inter: 21.8% 28.2% 3.9%
x264 [info]: i16 v,h,dc,p: 34% 17% 6% 43%
x264 [info]: i8 v,h,dc,ddl,ddr,vr,hd,vl,hu: 15% 14% 10% 7% 10% 11% 11% 10% 12%
x264 [info]: i4 v,h,dc,ddl,ddr,vr,hd,vl,hu: 16% 14% 7% 8% 12% 12% 12% 10% 11%
x264 [info]: i8c dc,h,v,p: 38% 27% 20% 15%
x264 [info]: Weighted P-Frames: Y:2.4% UV:1.4%
x264 [info]: ref P L0: 56.1% 10.3% 16.1% 5.4% 4.2% 3.0% 2.8% 1.9% 0.1% 0.0%
x264 [info]: ref B L0: 81.7% 10.4% 3.6% 1.8% 1.2% 0.8% 0.4%
x264 [info]: ref B L1: 96.1% 3.9%
x264 [info]: kb/s:3999.56
encoded 58095 frames, 15.24 fps, 3999.56 kb/s



   Похожие торренты   Торрент   Размер 
В этой теме нет новых непрочитанных сообщений. Теория заговора. Паленый алкоголь (2015) HDTVRip от GeneralFilm

221 | 12

554.77 МБ

В этой теме нет новых непрочитанных сообщений. Теория заговора. Паленый алкоголь (2015) HDTV 1080i от GeneralFilm

58 | 4

1.86 ГБ

В этой теме нет новых непрочитанных сообщений. Теория Заговора. Свахи (2015) HDTVRip 720p

38 | 7

1.36 ГБ

В этой теме нет новых непрочитанных сообщений. Теория Заговора. Полуфабрикаты (2015) HDTVRip 720p

331 | 33

1.3 ГБ

В этой теме нет новых непрочитанных сообщений. Теория Заговора. Морепродукты (2015) HDTVRip 720p

202 | 19

1.31 ГБ

В этой теме нет новых непрочитанных сообщений. Теория Заговора. Колбаса и Сосиски (2015) HDTVRip 720p

195 | 11

1.44 ГБ

В этой теме нет новых непрочитанных сообщений. Теория Заговора. Агрессивный Маркетинг (2015) HDTVRip 720p

74 | 6

1.19 ГБ




Вы не можете начинать темы
Вы не можете отвечать на сообщения
Вы не можете редактировать свои сообщения
Вы не можете удалять свои сообщения
Вы не можете добавлять вложения

Перейти:  
Для Мосгорсуда, Роскомнадзора и рекламодателей: mosgorsud-torrent[собачка]yandex.ru
 Вход
ppkBB3cker v.2 © 2008-2014 @ PPK
[ Time : 0.049s | 15 Queries | GZIP : On ]

Торрент трекер RUTOR.IN, Не можете зайти на rutor.org? Какой новый адрес рутор? Какое зеркало рутор? Не работает rutor.org и зеркала? Тогда наш торрент специально для вас. Rutor.in неофициальное зеркало rutor. В случае если у Вас заблокирован rutor или вдруг Вы не можете на него зайти, то Вы без труда сможете скачать бесплатно и без рекламы последние новинки кино, игр, сериалов и прочего у нас, на Rutor.in. Не нужно использовать прокси, чтобы зайти на рутор, достаточно воспользоваться нашим ресурсом. Все новые фильмы, игры, сериалы, книги и музыка за 2013 и 2014 годы через торрент бесплатно. Скачивайте фильмы в хорошем качестве, игры для пк, xbox, playstation без регистрации. У нас вы найдете новые Зарубежные сериалы и Русские сериалы 2013, 2014, 2015 годов. Оставайтесь с нами, качайте любимые фильмы, игры, сериалы, книги и музыку.