img image001 image001 image001 image001 image001 image001 image001 image001 image001 image001 image001 image001 image001 image001 image001

Planets Sun Sun Sun
Статистика раздачи
Автор: Nickolas3434 | Размер: 1.01 ГБ | Добавлен: 20 дек 2015
Раздают: 6    Качают: 0
Скачать торрент
Скачать торрент
Описание торрента

СообщениеДобавлено: 20 дек 2015 

Голливудская Мадам / Heidi Fleiss: The Would-Be Madam of Crystal


#77
Дата/Год выпуска: 2008
Страна: США
Жанр: Документальный
Продолжительность: 1:09:22
Перевод: Профессиональный одноголосый закадровый | студия "NOVAMEDiA" по заказу "AMEDiA TV"
Режиссер: Фентон Бэйли / Fenton Bailey, Рэнди Барбато / Randy Barbato

Описание: Рассказ о новом увлечении бывшей дивы Голивуда Хайди Флайсс — расположенном в Неваде мужском публичном доме под названием «Конюшня Хайди», который обслуживает прекрасную половину человечества.


Автор рипа: lrn
Автор записи: Alexin29
Сэмпл: sendfile

Тип релиза: HDTVRip-AVC
Контейнер: MKV
Видео: 1024x576 (16:9), 25,000 fps, H264, ~1500 kbps avg, ~0.102 bit/pixel
Аудио#1: 48 kHz, AC3 Dolby Digital, 3/2 (L,C,R,l,r) + LFE ch, ~384.00 kbps avg | студия "NOVAMEDiA"
Аудио#2: 48 kHz, AC3 Dolby Digital, 2/0 (L,R) ch, ~192.00 kbps avg | Оригинал

General
Unique ID : 253010066414270979709757927180593903404 (0xBE57F760586EE21E86DCDAB9C0BDB72C)
Complete name : E:uTorrent.TempDoneHeidi.Fleiss.2008.HDTVRip-AVC.x264-RUS-ENG-lrn.mkv
Format : Matroska
Format version : Version 4 / Version 2
File size : 1.01 GiB
Duration : 1h 9mn
Overall bit rate : 2 078 Kbps
Movie name : Heidi.Fleiss.2008.HDTVRip-AVC.x264-RUS-ENG-lrn
Encoded date : UTC 2010-02-22 21:41:31
Writing application : mkvmerge v5.9.0 ('On The Loose') built on Dec 9 2012 15:37:01
Writing library : libebml v1.3.0 + libmatroska v1.4.0
Video
ID : 1
Format : AVC
Format/Info : Advanced Video Codec
Format profile : High@L4.1
Format settings, CABAC : Yes
Format settings, ReFrames : 8 frames
Codec ID : V_MPEG4/ISO/AVC
Duration : 1h 9mn
Bit rate : 1 500 Kbps
Width : 1 024 pixels
Height : 576 pixels
Display aspect ratio : 16:9
Frame rate mode : Constant
Frame rate : 25.000 fps
Color space : YUV
Chroma subsampling : 4:2:0
Bit depth : 8 bits
Scan type : Progressive
Bits/(Pixel*Frame) : 0.102
Stream size : 725 MiB (70%)
Writing library : x264 core 142 r2479 dd79a61
Encoding settings : cabac=1 / ref=8 / deblock=1:-3:-3 / analyse=0x3:0x133 / me=umh / subme=9 / psy=1 / psy_rd=1.00:0.00 / mixed_ref=1 / me_range=32 / chroma_me=1 / trellis=2 / 8x8dct=1 / cqm=0 / deadzone=21,11 / fast_pskip=1 / chroma_qp_offset=-2 / threads=12 / lookahead_threads=2 / sliced_threads=0 / nr=0 / decimate=1 / interlaced=0 / bluray_compat=0 / constrained_intra=0 / bframes=8 / b_pyramid=2 / b_adapt=2 / b_bias=0 / direct=3 / weightb=1 / open_gop=0 / weightp=2 / keyint=250 / keyint_min=25 / scenecut=40 / intra_refresh=0 / rc_lookahead=50 / rc=2pass / mbtree=1 / bitrate=1500 / ratetol=1.0 / qcomp=0.60 / qpmin=0 / qpmax=69 / qpstep=4 / cplxblur=20.0 / qblur=0.5 / vbv_maxrate=62500 / vbv_bufsize=78125 / nal_hrd=none / filler=0 / ip_ratio=1.40 / aq=1:1.00
Default : Yes
Forced : No
Color range : Limited
Color primaries : BT.709
Transfer characteristics : BT.709
Matrix coefficients : BT.709
Audio #1
ID : 2
Format : AC-3
Format/Info : Audio Coding 3
Mode extension : CM (complete main)
Format settings, Endianness : Big
Codec ID : A_AC3
Duration : 1h 9mn
Bit rate mode : Constant
Bit rate : 384 Kbps
Channel(s) : 6 channels
Channel positions : Front: L C R, Side: L R, LFE
Sampling rate : 48.0 KHz
Frame rate : 31.250 fps (1536 spf)
Compression mode : Lossy
Delay relative to video : 70ms
Stream size : 191 MiB (18%)
Language : Russian
Default : Yes
Forced : Yes
Audio #2
ID : 3
Format : AC-3
Format/Info : Audio Coding 3
Mode extension : CM (complete main)
Format settings, Endianness : Big
Codec ID : A_AC3
Duration : 1h 9mn
Bit rate mode : Constant
Bit rate : 192 Kbps
Channel(s) : 2 channels
Channel positions : Front: L R
Sampling rate : 48.0 KHz
Frame rate : 31.250 fps (1536 spf)
Compression mode : Lossy
Delay relative to video : 280ms
Stream size : 95.3 MiB (9%)
Language : English
Default : No
Forced : No
raw [info]: 1024x576p 1:1 @ 25/1 fps (cfr)
x264 [info]: using SAR=1/1
x264 [info]: using cpu capabilities: MMX2 SSE2Fast SSSE3 SSE4.2 AVX
x264 [info]: profile High, level 4.1
x264 [info]: frame I:831 Avg QP:15.82 size: 57110
x264 [info]: frame P:24203 Avg QP:19.48 size: 16216
x264 [info]: frame B:79033 Avg QP:21.76 size: 4311
x264 [info]: consecutive B-frames: 2.4% 3.5% 8.5% 27.6% 25.8% 22.6% 4.8% 3.0% 1.9%
x264 [info]: mb I I16..4: 10.2% 74.3% 15.5%
x264 [info]: mb P I16..4: 3.2% 11.6% 1.0% P16..4: 44.0% 13.7% 10.4% 0.2% 0.1% skip:15.9%
x264 [info]: mb B I16..4: 0.3% 1.0% 0.1% B16..8: 32.2% 5.5% 1.2% direct: 5.6% skip:54.2% L0:41.9% L1:48.3% BI: 9.8%
x264 [info]: 8x8 transform intra:73.3% inter:73.7%
x264 [info]: direct mvs spatial:98.5% temporal:1.5%
x264 [info]: coded y,uvDC,uvAC intra: 66.1% 74.3% 35.3% inter: 16.2% 19.8% 1.1%
x264 [info]: i16 v,h,dc,p: 28% 22% 7% 43%
x264 [info]: i8 v,h,dc,ddl,ddr,vr,hd,vl,hu: 16% 12% 7% 7% 11% 12% 12% 11% 12%
x264 [info]: i4 v,h,dc,ddl,ddr,vr,hd,vl,hu: 19% 12% 5% 7% 12% 13% 12% 9% 10%
x264 [info]: i8c dc,h,v,p: 36% 27% 19% 18%
x264 [info]: Weighted P-Frames: Y:8.1% UV:3.8%
x264 [info]: ref P L0: 48.8% 10.6% 18.8% 6.3% 5.4% 3.8% 3.6% 2.3% 0.3% 0.0%
x264 [info]: ref B L0: 80.5% 10.4% 4.3% 2.0% 1.4% 0.9% 0.5%
x264 [info]: ref B L1: 95.0% 5.0%
x264 [info]: kb/s:1500.27
encoded 104068 frames, 18.32 fps, 1500.27 kb/s



   Похожие торренты   Торрент   Размер 
В этой теме нет новых непрочитанных сообщений. Голливудская Мадам / Heidi Fleiss: The Would-Be Madam of Crystal (2008) HDTVRip 720p | P1

8 | 4

2.22 ГБ

В этой теме нет новых непрочитанных сообщений. Зовите меня мадам / Назовите меня мадам / Call Me Madam (1953) DVDRip от egoleshik | 2 x P

57 | 5

2.03 ГБ

В этой теме нет новых непрочитанных сообщений. Взлет и падение Хейди Фляйс / Call Me: The Rise and Fall of Heidi Fleiss (2004) DVDRip | P

157 | 21

699.21 МБ

В этой теме нет новых непрочитанных сообщений. Мадам Баендук / Madam Ppang-Deok (2014) WEBRip | L

50 | 8

1.37 ГБ

В этой теме нет новых непрочитанных сообщений. При исполнении. Полицейские убийцы / Да, мадам! / Police Assassins / Yes, Madam! (1985) DVDRip от SergV

19 | 8

1.46 ГБ

В этой теме нет новых непрочитанных сообщений. Да, мадам! / При исполнении:Полицейские убийцы / Yes, Madam! / Police Assassins / Huang jia shi jie (1985) DVDRip

34 | 12

747.66 МБ

В этой теме нет новых непрочитанных сообщений. Ваша остановка, мадам (2008) SATRip от КинозалSAT

69 | 6

1.37 ГБ




Вы не можете начинать темы
Вы не можете отвечать на сообщения
Вы не можете редактировать свои сообщения
Вы не можете удалять свои сообщения
Вы не можете добавлять вложения

Перейти:  
Для Мосгорсуда, Роскомнадзора и рекламодателей: mosgorsud-torrent[собачка]yandex.ru
 Вход
ppkBB3cker v.2 © 2008-2014 @ PPK
[ Time : 0.024s | 17 Queries | GZIP : Off ]

Торрент трекер RUTOR.IN, Не можете зайти на rutor.org? Какой новый адрес рутор? Какое зеркало рутор? Не работает rutor.org и зеркала? Тогда наш торрент специально для вас. Rutor.in неофициальное зеркало rutor. В случае если у Вас заблокирован rutor или вдруг Вы не можете на него зайти, то Вы без труда сможете скачать бесплатно и без рекламы последние новинки кино, игр, сериалов и прочего у нас, на Rutor.in. Не нужно использовать прокси, чтобы зайти на рутор, достаточно воспользоваться нашим ресурсом. Все новые фильмы, игры, сериалы, книги и музыка за 2013 и 2014 годы через торрент бесплатно. Скачивайте фильмы в хорошем качестве, игры для пк, xbox, playstation без регистрации. У нас вы найдете новые Зарубежные сериалы и Русские сериалы 2013, 2014, 2015 годов. Оставайтесь с нами, качайте любимые фильмы, игры, сериалы, книги и музыку.