img image001 image001 image001 image001 image001 image001 image001 image001 image001 image001 image001 image001 image001 image001 image001

Planets Sun Sun Sun
Статистика раздачи
Автор: Nickolas3434 | Размер: 537.97 МБ | Добавлен: 16 янв 2016
Раздают: 126    Качают: 3
Скачать торрент
Скачать торрент
Описание торрента

СообщениеДобавлено: 16 янв 2016 

Оптина Пустынь



#77
Дата/Год выпуска: 2016
Страна: Россия
Телеканал: Первый Канал HD
Жанр: Документальный
Продолжительность: 0:39:53
Режиссер: Георгий Ананов

Описание: Оптина Пустынь. Вряд ли сюда едут случайно или оказываются проездом. Расположение монастыря напрочь отметает любую туристическую спонтанность. Он находится в нескольких километрах от Козельска. В сосновом вековом лесу на берегу реки Жиздра. И даже если вам покажется, что вы собрались сюда случайно, например, вас внезапно озарит идея туда съездить, или вашим глазам попадется заметочка с маршрутом - не называйте это случайностью.

Автор рипа: lrn
Автор записи: Academic Crack
Сэмпл: sendfile

Тип релиза: HDTVRip-AVC
Контейнер: MKV
Видео: 1024x576 (16:9), 25,000 fps, H264, ~1500 kbps avg, ~0.102 bit/pixel
Аудио: 48 kHz, AC3 Dolby Digital, 3/2 (L,C,R,l,r) + LFE ch, ~384.00 kbps avg

General
Unique ID : 217912648802564266152841842042657056190 (0xA3F073164BC5E6FF9F5F789CDF3025BE)
Complete name : E:uTorrent.TempTempOptina.Pustin.2016.HDTVRip-AVC.x264-lrn.mkv
Format : Matroska
Format version : Version 4 / Version 2
File size : 538 MiB
Duration : 39mn 53s
Overall bit rate : 1 886 Kbps
Movie name : Optina.Pustin.2016.HDTVRip-AVC.x264-lrn
Encoded date : UTC 2010-02-22 21:41:31
Writing application : mkvmerge v5.9.0 ('On The Loose') built on Dec 9 2012 15:37:01
Writing library : libebml v1.3.0 + libmatroska v1.4.0
Video
ID : 1
Format : AVC
Format/Info : Advanced Video Codec
Format profile : High@L4.1
Format settings, CABAC : Yes
Format settings, ReFrames : 8 frames
Codec ID : V_MPEG4/ISO/AVC
Duration : 39mn 53s
Bit rate : 1 500 Kbps
Width : 1 024 pixels
Height : 576 pixels
Display aspect ratio : 16:9
Frame rate mode : Constant
Frame rate : 25.000 fps
Color space : YUV
Chroma subsampling : 4:2:0
Bit depth : 8 bits
Scan type : Progressive
Bits/(Pixel*Frame) : 0.102
Stream size : 418 MiB (78%)
Writing library : x264 core 148 r2638 7599210
Encoding settings : cabac=1 / ref=8 / deblock=1:-3:-3 / analyse=0x3:0x133 / me=umh / subme=9 / psy=1 / psy_rd=1.00:0.00 / mixed_ref=1 / me_range=32 / chroma_me=1 / trellis=2 / 8x8dct=1 / cqm=0 / deadzone=21,11 / fast_pskip=1 / chroma_qp_offset=-2 / threads=12 / lookahead_threads=2 / sliced_threads=0 / nr=0 / decimate=1 / interlaced=0 / bluray_compat=0 / constrained_intra=0 / bframes=8 / b_pyramid=2 / b_adapt=2 / b_bias=0 / direct=3 / weightb=1 / open_gop=0 / weightp=2 / keyint=250 / keyint_min=25 / scenecut=40 / intra_refresh=0 / rc_lookahead=50 / rc=2pass / mbtree=1 / bitrate=1500 / ratetol=1.0 / qcomp=0.60 / qpmin=0 / qpmax=69 / qpstep=4 / cplxblur=20.0 / qblur=0.5 / vbv_maxrate=62500 / vbv_bufsize=78125 / nal_hrd=none / filler=0 / ip_ratio=1.40 / aq=1:1.00
Default : Yes
Forced : No
Statistics Tags Issue : mkvmerge v8.5.2 ('Crosses') 32bit 2016-01-11 06:18:14 / mkvmerge v5.9.0 ('On The Loose') built on Dec 9 2012 15:37:01 2010-02-22 21:41:31
FromStats_BitRate : 1499981
FromStats_Duration : 00:39:53.120000000
FromStats_FrameCount : 59828
FromStats_StreamSize : 448704499
Audio
ID : 2
Format : AC-3
Format/Info : Audio Coding 3
Mode extension : CM (complete main)
Format settings, Endianness : Big
Codec ID : A_AC3
Duration : 39mn 53s
Bit rate mode : Constant
Bit rate : 384 Kbps
Channel(s) : 6 channels
Channel positions : Front: L C R, Side: L R, LFE
Sampling rate : 48.0 KHz
Frame rate : 31.250 fps (1536 spf)
Compression mode : Lossy
Stream size : 110 MiB (20%)
Language : Russian
Default : Yes
Forced : No
raw [info]: 1024x576p 1:1 @ 25/1 fps (cfr)
x264 [info]: using SAR=1/1
x264 [info]: using cpu capabilities: MMX2 SSE2Fast SSSE3 SSE4.2 AVX
x264 [info]: profile High, level 4.1
x264 [info]: frame I:1597 Avg QP:15.29 size: 45050
x264 [info]: frame P:33755 Avg QP:19.14 size: 13288
x264 [info]: frame B:96005 Avg QP:20.83 size: 4842
x264 [info]: consecutive B-frames: 4.0% 4.6% 5.8% 56.3% 6.2% 11.2% 2.1% 6.7% 3.0%
x264 [info]: mb I I16..4: 14.8% 75.0% 10.2%
x264 [info]: mb P I16..4: 2.1% 10.6% 0.8% P16..4: 40.3% 12.3% 9.7% 0.2% 0.1% skip:23.9%
x264 [info]: mb B I16..4: 0.1% 1.2% 0.1% B16..8: 33.1% 6.8% 1.2% direct: 4.7% skip:52.8% L0:44.8% L1:47.7% BI: 7.5%
x264 [info]: 8x8 transform intra:78.7% inter:77.8%
x264 [info]: direct mvs spatial:97.0% temporal:3.0%
x264 [info]: coded y,uvDC,uvAC intra: 72.0% 52.5% 22.3% inter: 18.0% 11.5% 0.3%
x264 [info]: i16 v,h,dc,p: 46% 14% 8% 32%
x264 [info]: i8 v,h,dc,ddl,ddr,vr,hd,vl,hu: 12% 9% 9% 8% 12% 14% 12% 12% 12%
x264 [info]: i4 v,h,dc,ddl,ddr,vr,hd,vl,hu: 13% 9% 4% 9% 15% 15% 13% 11% 11%
x264 [info]: i8c dc,h,v,p: 52% 19% 15% 14%
x264 [info]: Weighted P-Frames: Y:4.8% UV:1.0%
x264 [info]: ref P L0: 49.9% 10.7% 16.3% 6.8% 5.3% 4.4% 3.7% 2.5% 0.4% 0.0%
x264 [info]: ref B L0: 73.5% 12.3% 6.3% 3.2% 2.5% 1.5% 0.7%
x264 [info]: ref B L1: 93.5% 6.5%
x264 [info]: kb/s:1500.18
encoded 59828 frames, 26.48 fps, 1500.18 kb/s



   Похожие торренты   Торрент   Размер 
В этой теме нет новых непрочитанных сообщений. Оптина Пустынь (2016) HDTVRip 720p

370 | 21

1.22 ГБ

В этой теме нет новых непрочитанных сообщений. Оптина пустынь (2016) HDTVRip 720p

318 | 22

1.08 ГБ

В этой теме нет новых непрочитанных сообщений. Оптина Пустынь (2010) DVDRip

48 | 59

1.1 ГБ

В этой теме нет новых непрочитанных сообщений. Благословенная Оптина. Песнопения братии древней обители (2006) MP3

157 | 6

104.89 МБ

В этой теме нет новых непрочитанных сообщений. Княжая Пустынь - Дискография (2013-2014) MP3

46 | 11

528.58 МБ

В этой теме нет новых непрочитанных сообщений. Княжая Пустынь - Дискография (2013-2014) MP3

2 | 2

307.39 МБ

В этой теме нет новых непрочитанных сообщений. Зосимова пустынь и ратники Христовы (СЫН В АРМИИ) (2005) SATRip

0 | 2

771.89 МБ




Вы не можете начинать темы
Вы не можете отвечать на сообщения
Вы не можете редактировать свои сообщения
Вы не можете удалять свои сообщения
Вы не можете добавлять вложения

Перейти:  
Для Мосгорсуда, Роскомнадзора и рекламодателей: mosgorsud-torrent[собачка]yandex.ru
 Вход
ppkBB3cker v.2 © 2008-2014 @ PPK
[ Time : 0.023s | 15 Queries | GZIP : On ]

Торрент трекер RUTOR.IN, Не можете зайти на rutor.org? Какой новый адрес рутор? Какое зеркало рутор? Не работает rutor.org и зеркала? Тогда наш торрент специально для вас. Rutor.in неофициальное зеркало rutor. В случае если у Вас заблокирован rutor или вдруг Вы не можете на него зайти, то Вы без труда сможете скачать бесплатно и без рекламы последние новинки кино, игр, сериалов и прочего у нас, на Rutor.in. Не нужно использовать прокси, чтобы зайти на рутор, достаточно воспользоваться нашим ресурсом. Все новые фильмы, игры, сериалы, книги и музыка за 2013 и 2014 годы через торрент бесплатно. Скачивайте фильмы в хорошем качестве, игры для пк, xbox, playstation без регистрации. У нас вы найдете новые Зарубежные сериалы и Русские сериалы 2013, 2014, 2015 годов. Оставайтесь с нами, качайте любимые фильмы, игры, сериалы, книги и музыку.