img image001 image001 image001 image001 image001 image001 image001 image001 image001 image001 image001 image001 image001 image001 image001

Planets Sun Sun Sun
Статистика раздачи
Автор: Nickolas3434 | Размер: 1.22 ГБ | Добавлен: 17 янв 2016
Раздают: 370    Качают: 21
Скачать торрент
Скачать торрент
Описание торрента

СообщениеДобавлено: 17 янв 2016 

Оптина Пустынь


#77
Дата/Год выпуска: 2016
Страна: Россия
Телеканал: Первый Канал HD
Жанр: Документальный
Продолжительность: 0:39:53
Режиссер: Георгий Ананов

Описание: Оптина Пустынь. Вряд ли сюда едут случайно или оказываются проездом. Расположение монастыря напрочь отметает любую туристическую спонтанность. Он находится в нескольких километрах от Козельска. В сосновом вековом лесу на берегу реки Жиздра. И даже если вам покажется, что вы собрались сюда случайно, например, вас внезапно озарит идея туда съездить, или вашим глазам попадется заметочка с маршрутом - не называйте это случайностью.

Автор рипа: lrn
Автор записи: Academic Crack
Сэмпл: sendfile

качество: HDTVRip 720p
формат: MKV
Видео: 1280x720 (16:9), 25,000 fps, H264, ~4000 kbps avg, ~0.174 bit/pixel
Аудио: 48 kHz, AC3 Dolby Digital, 3/2 (L,C,R,l,r) + LFE ch, ~384.00 kbps avg

General
Unique ID : 212903262578338137362218739471251134143 (0xA02BAD4712A7D5ADBFD8E9D89B4FD6BF)
Complete name : E:uTorrent.TempTempOptina.Pustin.2016.HDTV.720p.x264-lrn.mkv
Format : Matroska
Format version : Version 4 / Version 2
File size : 1.22 GiB
Duration : 39mn 53s
Overall bit rate : 4 386 Kbps
Movie name : Optina.Pustin.2016.HDTV.720p.x264-lrn
Encoded date : UTC 2010-02-22 21:41:31
Writing application : mkvmerge v5.9.0 ('On The Loose') built on Dec 9 2012 15:37:01
Writing library : libebml v1.3.0 + libmatroska v1.4.0
Video
ID : 1
Format : AVC
Format/Info : Advanced Video Codec
Format profile : High@L4.1
Format settings, CABAC : Yes
Format settings, ReFrames : 8 frames
Codec ID : V_MPEG4/ISO/AVC
Duration : 39mn 53s
Bit rate : 4 000 Kbps
Width : 1 280 pixels
Height : 720 pixels
Display aspect ratio : 16:9
Frame rate mode : Constant
Frame rate : 25.000 fps
Color space : YUV
Chroma subsampling : 4:2:0
Bit depth : 8 bits
Scan type : Progressive
Bits/(Pixel*Frame) : 0.174
Stream size : 1.09 GiB (89%)
Writing library : x264 core 148 r2638 7599210
Encoding settings : cabac=1 / ref=8 / deblock=1:-3:-3 / analyse=0x3:0x133 / me=umh / subme=9 / psy=1 / psy_rd=1.00:0.00 / mixed_ref=1 / me_range=32 / chroma_me=1 / trellis=2 / 8x8dct=1 / cqm=0 / deadzone=21,11 / fast_pskip=1 / chroma_qp_offset=-2 / threads=12 / lookahead_threads=2 / sliced_threads=0 / nr=0 / decimate=1 / interlaced=0 / bluray_compat=0 / constrained_intra=0 / bframes=8 / b_pyramid=2 / b_adapt=2 / b_bias=0 / direct=3 / weightb=1 / open_gop=0 / weightp=2 / keyint=250 / keyint_min=25 / scenecut=40 / intra_refresh=0 / rc_lookahead=50 / rc=2pass / mbtree=1 / bitrate=4000 / ratetol=1.0 / qcomp=0.60 / qpmin=0 / qpmax=69 / qpstep=4 / cplxblur=20.0 / qblur=0.5 / vbv_maxrate=62500 / vbv_bufsize=78125 / nal_hrd=none / filler=0 / ip_ratio=1.40 / aq=1:1.00
Default : Yes
Forced : No
Statistics Tags Issue : mkvmerge v8.5.2 ('Crosses') 32bit 2016-01-11 07:36:07 / mkvmerge v5.9.0 ('On The Loose') built on Dec 9 2012 15:37:01 2010-02-22 21:41:31
FromStats_BitRate : 4000162
FromStats_Duration : 00:39:53.120000000
FromStats_FrameCount : 59828
FromStats_StreamSize : 1196608676
Audio
ID : 2
Format : AC-3
Format/Info : Audio Coding 3
Mode extension : CM (complete main)
Format settings, Endianness : Big
Codec ID : A_AC3
Duration : 39mn 53s
Bit rate mode : Constant
Bit rate : 384 Kbps
Channel(s) : 6 channels
Channel positions : Front: L C R, Side: L R, LFE
Sampling rate : 48.0 KHz
Frame rate : 31.250 fps (1536 spf)
Compression mode : Lossy
Stream size : 110 MiB (9%)
Language : Russian
Default : Yes
Forced : No
raw [info]: 1280x720p 1:1 @ 25/1 fps (cfr)
x264 [info]: using SAR=1/1
x264 [info]: using cpu capabilities: MMX2 SSE2Fast SSSE3 SSE4.2 AVX
x264 [info]: profile High, level 4.1
x264 [info]: frame I:1524 Avg QP:11.63 size: 91118
x264 [info]: frame P:34834 Avg QP:15.26 size: 33909
x264 [info]: frame B:94999 Avg QP:16.29 size: 13759
x264 [info]: consecutive B-frames: 4.2% 5.1% 5.4% 61.5% 5.3% 9.2% 1.6% 5.2% 2.5%
x264 [info]: mb I I16..4: 12.0% 77.1% 10.9%
x264 [info]: mb P I16..4: 2.5% 16.2% 1.2% P16..4: 36.0% 20.6% 11.1% 0.4% 0.1% skip:11.8%
x264 [info]: mb B I16..4: 0.2% 2.4% 0.1% B16..8: 32.8% 12.8% 2.6% direct: 8.4% skip:40.7% L0:45.1% L1:43.8% BI:11.1%
x264 [info]: 8x8 transform intra:81.7% inter:67.4%
x264 [info]: direct mvs spatial:98.1% temporal:1.9%
x264 [info]: coded y,uvDC,uvAC intra: 79.2% 61.9% 39.2% inter: 29.6% 20.4% 1.6%
x264 [info]: i16 v,h,dc,p: 62% 12% 6% 20%
x264 [info]: i8 v,h,dc,ddl,ddr,vr,hd,vl,hu: 14% 11% 11% 7% 11% 13% 11% 12% 12%
x264 [info]: i4 v,h,dc,ddl,ddr,vr,hd,vl,hu: 14% 10% 7% 8% 14% 14% 12% 11% 10%
x264 [info]: i8c dc,h,v,p: 54% 18% 16% 12%
x264 [info]: Weighted P-Frames: Y:4.0% UV:1.0%
x264 [info]: ref P L0: 50.4% 8.9% 16.7% 7.3% 5.6% 4.4% 3.8% 2.7% 0.3% 0.0%
x264 [info]: ref B L0: 72.3% 12.7% 6.4% 3.4% 2.7% 1.7% 0.8%
x264 [info]: ref B L1: 93.9% 6.1%
x264 [info]: kb/s:3999.98
encoded 59828 frames, 14.71 fps, 3999.98 kb/s



   Похожие торренты   Торрент   Размер 
В этой теме нет новых непрочитанных сообщений. Оптина пустынь (2016) HDTVRip 720p

318 | 22

1.08 ГБ

В этой теме нет новых непрочитанных сообщений. Оптина Пустынь (2016) HDTVRip-AVC

126 | 3

537.97 МБ

В этой теме нет новых непрочитанных сообщений. Оптина Пустынь (2010) DVDRip

48 | 59

1.1 ГБ

В этой теме нет новых непрочитанных сообщений. Благословенная Оптина. Песнопения братии древней обители (2006) MP3

157 | 6

104.89 МБ

В этой теме нет новых непрочитанных сообщений. Княжая Пустынь - Дискография (2013-2014) MP3

46 | 11

528.58 МБ

В этой теме нет новых непрочитанных сообщений. Княжая Пустынь - Дискография (2013-2014) MP3

2 | 2

307.39 МБ

В этой теме нет новых непрочитанных сообщений. Зосимова пустынь и ратники Христовы (СЫН В АРМИИ) (2005) SATRip

0 | 2

771.89 МБ




Вы не можете начинать темы
Вы не можете отвечать на сообщения
Вы не можете редактировать свои сообщения
Вы не можете удалять свои сообщения
Вы не можете добавлять вложения

Перейти:  
Для Мосгорсуда, Роскомнадзора и рекламодателей: mosgorsud-torrent[собачка]yandex.ru
 Вход
ppkBB3cker v.2 © 2008-2014 @ PPK
[ Time : 0.024s | 16 Queries | GZIP : Off ]

Торрент трекер RUTOR.IN, Не можете зайти на rutor.org? Какой новый адрес рутор? Какое зеркало рутор? Не работает rutor.org и зеркала? Тогда наш торрент специально для вас. Rutor.in неофициальное зеркало rutor. В случае если у Вас заблокирован rutor или вдруг Вы не можете на него зайти, то Вы без труда сможете скачать бесплатно и без рекламы последние новинки кино, игр, сериалов и прочего у нас, на Rutor.in. Не нужно использовать прокси, чтобы зайти на рутор, достаточно воспользоваться нашим ресурсом. Все новые фильмы, игры, сериалы, книги и музыка за 2013 и 2014 годы через торрент бесплатно. Скачивайте фильмы в хорошем качестве, игры для пк, xbox, playstation без регистрации. У нас вы найдете новые Зарубежные сериалы и Русские сериалы 2013, 2014, 2015 годов. Оставайтесь с нами, качайте любимые фильмы, игры, сериалы, книги и музыку.
cron