img image001 image001 image001 image001 image001 image001 image001 image001 image001 image001 image001 image001 image001 image001 image001

Planets Sun Sun Sun
Статистика раздачи
Автор: Nickolas3434 | Размер: 419.16 МБ | Добавлен: 25 янв 2016
Раздают: 70    Качают: 6
Скачать торрент
Скачать торрент
Описание торрента

СообщениеДобавлено: 25 янв 2016 


Информация о передаче
Название: Самая полезная программа
Год выхода: 2016 (телеканал РЕН ТВ)
Жанр: научно-популярный, познавательный, здоровье, эксперименты
Режиссер-постановщик: Дмитрий Горбулин
Выпускающий-режиссер: Дмитрий Ларченко
Ведущие: Владимир Щеглов, Данила Кленин (Даня Крастер)
Описание:
Здоровый образ жизни (ЗОЖ) – это модно. Множество отчаянных людей каждый день ставит самые разнообразные эксперименты на своем здоровье. Не всегда эти эксперименты заканчиваются так, как бы хотелось. Автор «Самой полезной программы» Владимир Щеглов принесет себя в жертву науке и проверит на себе, какие из оздоровительных процедур лечат, а какие – калечат своих приверженцев.
Выпуск 12 (эфир от 2016-01-23) [00:46:46]: Сладости
Узнаем какие батончики, торты и пирожные – не вредят фигуре. Почему диетологи разрешают десерты? Что такое «чит-мил»? Почему спортсмены не ограничивают себя в сахаре? Правда ли, что сладкоежки добрые? И как любовь к шоколаду доводить до операционного стола?

Страна: Россия
Производство: ООО «МЕДИАПРОМ», РЕН ТВ
Продолжительность: 00:46:46
Перевод: не требуется
Файл
Качество: PDTVRip-AVC (SDTV)
Кодек: AVC (High@L3.1) (CABAC / 5 RF), x264 core 148 r209 7599210
Видео: Slow Preset (CRF 19), 1162 kb/s, 720x402 (16:9), 25.000 fps
Звук: AAC (LC), VBR 84.0 kb/s, Mono, 44.1 kHz, NeroAAC 1.5.4 & AACGain 1.9.0
Раздача ведется путем добавления новых выпусков! Как докачать последний выпуск?
General
Complete name : Samaya.poleznaya.programma.E12.2016.01.23.PDTVRip.x264-SDARMY.mp4
Format : MPEG-4
Format profile : Base Media
Codec ID : isom
File size : 419 MiB
Duration : 46mn 46s
Overall bit rate mode : Variable
Overall bit rate : 1 253 Kbps
Movie name : Самая полезная программа. Выпуск 12
Writing application : Lavf56.40.101
Video
ID : 1
Format : AVC
Format/Info : Advanced Video Codec
Format profile : High@L3.1
Format settings, CABAC : Yes
Format settings, ReFrames : 5 frames
Codec ID : avc1
Codec ID/Info : Advanced Video Coding
Duration : 46mn 46s
Bit rate : 1 162 Kbps
Width : 720 pixels
Height : 402 pixels
Display aspect ratio : 16:9
Frame rate mode : Constant
Frame rate : 25.000 fps
Color space : YUV
Chroma subsampling : 4:2:0
Bit depth : 8 bits
Scan type : Progressive
Bits/(Pixel*Frame) : 0.161
Stream size : 389 MiB (93%)
Writing library : x264 core 148 r209 7599210
Encoding settings : cabac=1 / ref=5 / deblock=1:0:0 / analyse=0x3:0x113 / me=umh / subme=8 / psy=1 / psy_rd=1.00:0.00 / mixed_ref=1 / me_range=16 / chroma_me=1 / trellis=1 / 8x8dct=1 / cqm=0 / deadzone=21,11 / fast_pskip=1 / chroma_qp_offset=-2 / threads=3 / lookahead_threads=1 / sliced_threads=0 / nr=0 / decimate=1 / interlaced=0 / bluray_compat=0 / constrained_intra=0 / bframes=3 / b_pyramid=2 / b_adapt=2 / b_bias=0 / direct=3 / weightb=1 / open_gop=0 / weightp=2 / keyint=250 / keyint_min=25 / scenecut=40 / intra_refresh=0 / rc_lookahead=50 / rc=crf / mbtree=1 / crf=19.0 / qcomp=0.60 / qpmin=0 / qpmax=69 / qpstep=4 / ip_ratio=1.40 / aq=1:1.00
Language : Russian
Audio
ID : 2
Format : AAC
Format/Info : Advanced Audio Codec
Format profile : LC
Codec ID : 40
Duration : 46mn 46s
Bit rate mode : Variable
Bit rate : 84.0 Kbps
Maximum bit rate : 91.9 Kbps
Channel(s) : 1 channel
Channel positions : Front: C
Sampling rate : 44.1 KHz
Compression mode : Lossy
Delay relative to video : -1s 24ms
Stream size : 28.1 MiB (7%)
Language : Russian



Релиз от:



   Похожие торренты   Торрент   Размер 
В этой теме нет новых непрочитанных сообщений. Самая полезная программа [12-13] (2016) PDTVRip-AVC от SDARMY

28 | 3

809.13 МБ

В этой теме нет новых непрочитанных сообщений. Самая полезная программа [12-14] (2016) PDTVRip-AVC от SDARMY

17 | 21

1.14 ГБ

В этой теме нет новых непрочитанных сообщений. Самая полезная программа [12-15] (2016) PDTVRip-AVC от SDARMY

35 | 46

1.49 ГБ

В этой теме нет новых непрочитанных сообщений. Самая полезная программа [12-15] (2016) PDTVRip-AVC от SDARMY | PROPER

29 | 16

1.46 ГБ

В этой теме нет новых непрочитанных сообщений. Самая полезная программа [01-11 из 11] (2015) PDTVRip-AVC от SDARMY

70 | 22

4.52 ГБ

В этой теме нет новых непрочитанных сообщений. Самая полезная программа [01-11 из 11] (2015) PDTVRip-AVC от SDARMY | PROPER

65 | 21

4.52 ГБ

В этой теме нет новых непрочитанных сообщений. Самая полезная программа [12-22] (2016) WEB-DLRip от Generalfilm

0 | 0

7.18 ГБ




Вы не можете начинать темы
Вы не можете отвечать на сообщения
Вы не можете редактировать свои сообщения
Вы не можете удалять свои сообщения
Вы не можете добавлять вложения

Перейти:  
Для Мосгорсуда, Роскомнадзора и рекламодателей: mosgorsud-torrent[собачка]yandex.ru
 Вход
ppkBB3cker v.2 © 2008-2014 @ PPK
[ Time : 0.051s | 14 Queries | GZIP : Off ]

Торрент трекер RUTOR.IN, Не можете зайти на rutor.org? Какой новый адрес рутор? Какое зеркало рутор? Не работает rutor.org и зеркала? Тогда наш торрент специально для вас. Rutor.in неофициальное зеркало rutor. В случае если у Вас заблокирован rutor или вдруг Вы не можете на него зайти, то Вы без труда сможете скачать бесплатно и без рекламы последние новинки кино, игр, сериалов и прочего у нас, на Rutor.in. Не нужно использовать прокси, чтобы зайти на рутор, достаточно воспользоваться нашим ресурсом. Все новые фильмы, игры, сериалы, книги и музыка за 2013 и 2014 годы через торрент бесплатно. Скачивайте фильмы в хорошем качестве, игры для пк, xbox, playstation без регистрации. У нас вы найдете новые Зарубежные сериалы и Русские сериалы 2013, 2014, 2015 годов. Оставайтесь с нами, качайте любимые фильмы, игры, сериалы, книги и музыку.