img image001 image001 image001 image001 image001 image001 image001 image001 image001 image001 image001 image001 image001 image001 image001

Planets Sun Sun Sun
Статистика раздачи
Автор: Nickolas3434 | Размер: 4.59 ГБ | Добавлен: 31 янв 2016
Раздают: 39    Качают: 14
Скачать торрент
Скачать торрент
Описание торрента

СообщениеДобавлено: 31 янв 2016 


Информация о фильме
Название: Легенды белорусской эстрады
Год выхода: 2015
Жанр: Документальный
Режиссер: Дмитрий Симаго
О фильме:
"Легенды белорусской эстрады" - документальный цикл передач про знаменитых, любимых, непревзойденных поэтов, композиторов, артистов которые прославили культуру Беларуси в веках.
Благодарность: Bartimeyse за оказанную помощь с материалом.
Запись потока *.ts с наземного цифрового телеканала "Беларусь 3", ремукс в *.mkv программой VideoReDo.

Страна: Республика Беларусь
Студия: Белтелерадиокомпания
Продолжительность: ~00:26:00*10
Перевод: ненужен
Файл
Кодек: AVC (H264)
Качество: DVB
Видео: AVC (H264), 720x576 (4:3), 25 fps, 2 207 Kbps
Звук: MP2, 256 kbps, 2 channels, 48 kHz
001-Я вернусь... В.Вуячич (2015)
002-Наследие Игоря Лученка (2015)
003-О, сцена, тебе я верна... Наталия Гайда (2015)
004-Любви прощальный бал. ВИА Верасы (2015)
005-Романс о влюбленном Яков Науменко (2015)
006-Последний крик Песняра. В.Мулявин (2015)
007-Чаровницы мира. ВИА Чаровницы (2015)
008-Девушка с гитарой. Н.Микулич (2015)
009-Останься со мною... ВИА Сябры (2015)
010-Музыка звёзд. Тамара Раевская (2015)

Код:
General
Unique ID                      : 211675813923526470080299729747280994741 (0x9F3F4762F6335475A0CD1E5D8A4D21B5)
Complete name                  : D:Новая  земля 201 Документальный фильмыЛичностиЛегенды белорусской эстрадыЛегенды белорусской эстрады (2015)ЛБЭ-001-Я вернусь... В.Вуячич (2015).mkv
Format                         : Matroska
Format version                 : Version 2
File size                      : 472 MiB
Duration                       : 26mn 15s
Overall bit rate               : 2 513 Kbps
Writing application            : Lavf52.64.2
Writing library                : Lavf52.64.2
Video
ID                             : 1
Format                         : AVC
Format/Info                    : Advanced Video Codec
Format profile                 : Main@L3.0
Format settings, CABAC         : Yes
Format settings, ReFrames      : 4 frames
Format settings, GOP           : M=4, N=24
Codec ID                       : V_MPEG4/ISO/AVC
Duration                       : 26mn 15s
Bit rate                       : 2 207 Kbps
Width                          : 720 pixels
Height                         : 576 pixels
Display aspect ratio           : 4:3
Original display aspect ratio  : 4:3
Frame rate mode                : Constant
Frame rate                     : 25.000 fps
Standard                       : PAL
Color space                    : YUV
Chroma subsampling             : 4:2:0
Bit depth                      : 8 bits
Scan type                      : MBAFF
Scan order                     : Top Field First
Bits/(Pixel*Frame)             : 0.213
Stream size                    : 415 MiB (88%)
Default                        : Yes
Forced                         : No
Color primaries                : BT.601 PAL
Transfer characteristics       : BT.470 System B, BT.470 System G
Matrix coefficients            : BT.601
Color range                    : Limited
Audio
ID                             : 2
Format                         : MPEG Audio
Format version                 : Version 1
Format profile                 : Layer 2
Codec ID                       : A_MPEG/L2
Codec ID/Hint                  : MP2
Duration                       : 26mn 15s
Bit rate mode                  : Constant
Bit rate                       : 256 Kbps
Channel(s)                     : 2 channels
Sampling rate                  : 48.0 KHz
Compression mode               : Lossy
Stream size                    : 48.1 MiB (10%)
Language                       : English
Default                        : Yes
Forced                         : No
 

Семпл



   Похожие торренты   Торрент   Размер 
В этой теме нет новых непрочитанных сообщений. За каждую пядь белорусской земли (2007) DVB от AND03AND

32 | 12

987.07 МБ

В этой теме нет новых непрочитанных сообщений. Доблесть земли белорусской (Воен-ТВ) (01-04 из 04) (2014) DVB от AND03AND

56 | 3

949.75 МБ

В этой теме нет новых непрочитанных сообщений. Заповедными тропами белорусской земли (2011) SATRip от AND03AND

150 | 12

739.56 МБ

В этой теме нет новых непрочитанных сообщений. ХVI Национальный фестиваль белорусской песни и поэзии Молодечно / Маладзечна (2016) DVB от AND03AND

2 | 2

6.48 ГБ

В этой теме нет новых непрочитанных сообщений. День белорусской письменности. Рогачев / Дзень беларускага пісьменства. Рагачоў (2016) DVB от AND03AND

0 | 26

4.36 ГБ

В этой теме нет новых непрочитанных сообщений. Сборник - Легенды советской эстрады 70-80 годы (2012) MP3

459 | 46

840.63 МБ

В этой теме нет новых непрочитанных сообщений. Легенды Несвижского замка (2012) SATRip от AND03AND

172 | 16

540.12 МБ




Вы не можете начинать темы
Вы не можете отвечать на сообщения
Вы не можете редактировать свои сообщения
Вы не можете удалять свои сообщения
Вы не можете добавлять вложения

Перейти:  
Для Мосгорсуда, Роскомнадзора и рекламодателей: mosgorsud-torrent[собачка]yandex.ru
 Вход
ppkBB3cker v.2 © 2008-2014 @ PPK
[ Time : 0.034s | 14 Queries | GZIP : On ]

Торрент трекер RUTOR.IN, Не можете зайти на rutor.org? Какой новый адрес рутор? Какое зеркало рутор? Не работает rutor.org и зеркала? Тогда наш торрент специально для вас. Rutor.in неофициальное зеркало rutor. В случае если у Вас заблокирован rutor или вдруг Вы не можете на него зайти, то Вы без труда сможете скачать бесплатно и без рекламы последние новинки кино, игр, сериалов и прочего у нас, на Rutor.in. Не нужно использовать прокси, чтобы зайти на рутор, достаточно воспользоваться нашим ресурсом. Все новые фильмы, игры, сериалы, книги и музыка за 2013 и 2014 годы через торрент бесплатно. Скачивайте фильмы в хорошем качестве, игры для пк, xbox, playstation без регистрации. У нас вы найдете новые Зарубежные сериалы и Русские сериалы 2013, 2014, 2015 годов. Оставайтесь с нами, качайте любимые фильмы, игры, сериалы, книги и музыку.