img image001 image001 image001 image001 image001 image001 image001 image001 image001 image001 image001 image001 image001 image001 image001

Planets Sun Sun Sun
Статистика раздачи
Автор: Nickolas3434 | Размер: 735.64 МБ | Добавлен: 30 янв 2016, 17:16
Раздают: 112    Качают: 9
Скачать торрент
Скачать торрент
Описание торрента

СообщениеДобавлено: 30 янв 2016, 17:16 


Информация о фильме
Название: Одиннадцать причин конца света
Дата эфира: 2015-11-20 (телеканал РЕН ТВ)
Жанр: документальный, климат, катаклизмы, апокалипсис
Автор и режиссер: Александр Милославов
Руководитель проекта: Игорь Прокопенко
Описание:
С каждым годом на Земле происходит все больше природных катастроф. В Саудовской Аравии выпадает град, Европа страдает от невиданной жары, а в Азии цунами уносят жизни десятков тысяч людей, разрушая целые города. Ученые прогнозируют, что глобальные изменения климата будут продолжаться. Это значит, что количество катаклизмов будет только расти. Авторы документального фильма «Одиннадцать причин конца света» постарались разобраться, какие из угроз наиболее опасны. И что нужно предпринять уже сегодня, чтобы остановить апокалипсис завтра.
Страна: Россия
Производство: РЕН ТВ
Продолжительность: 01:36:15
Перевод: не требуется
Файл
Качество: PDTVRip-AVC (SDTV)
Кодек: AVC (High@L3.1) (CABAC / 5 RF), x264 core 148 r209 7599210
Видео: Slow Preset (CRF 19), 979 kb/s, 720x404 (16:9), 25.000 fps
Звук: AAC (LC), VBR 83.1 kb/s, Mono, 44.1 kHz, NeroAAC 1.5.4 & AACGain 1.9.0
General
Complete name : Odinnadtsat.prichin.kontsa.sveta.2015.11.20.PDTVRip.x264-SDARMY.mp4
Format : MPEG-4
Format profile : Base Media
Codec ID : isom
File size : 736 MiB
Duration : 1h 36mn
Overall bit rate mode : Variable
Overall bit rate : 1 069 Kbps
Movie name : Одиннадцать причин конца света
Writing application : Lavf56.40.101
Video
ID : 1
Format : AVC
Format/Info : Advanced Video Codec
Format profile : High@L3.1
Format settings, CABAC : Yes
Format settings, ReFrames : 5 frames
Codec ID : avc1
Codec ID/Info : Advanced Video Coding
Duration : 1h 36mn
Bit rate : 979 Kbps
Width : 720 pixels
Height : 404 pixels
Display aspect ratio : 16:9
Frame rate mode : Constant
Frame rate : 25.000 fps
Color space : YUV
Chroma subsampling : 4:2:0
Bit depth : 8 bits
Scan type : Progressive
Bits/(Pixel*Frame) : 0.135
Stream size : 674 MiB (92%)
Writing library : x264 core 148 r209 7599210
Encoding settings : cabac=1 / ref=5 / deblock=1:0:0 / analyse=0x3:0x113 / me=umh / subme=8 / psy=1 / psy_rd=1.00:0.00 / mixed_ref=1 / me_range=16 / chroma_me=1 / trellis=1 / 8x8dct=1 / cqm=0 / deadzone=21,11 / fast_pskip=1 / chroma_qp_offset=-2 / threads=3 / lookahead_threads=1 / sliced_threads=0 / nr=0 / decimate=1 / interlaced=0 / bluray_compat=0 / constrained_intra=0 / bframes=3 / b_pyramid=2 / b_adapt=2 / b_bias=0 / direct=3 / weightb=1 / open_gop=0 / weightp=2 / keyint=250 / keyint_min=25 / scenecut=40 / intra_refresh=0 / rc_lookahead=50 / rc=crf / mbtree=1 / crf=19.0 / qcomp=0.60 / qpmin=0 / qpmax=69 / qpstep=4 / ip_ratio=1.40 / aq=1:1.00
Language : Russian
Audio
ID : 2
Format : AAC
Format/Info : Advanced Audio Codec
Format profile : LC
Codec ID : 40
Duration : 1h 36mn
Bit rate mode : Variable
Bit rate : 83.1 Kbps
Maximum bit rate : 96.0 Kbps
Channel(s) : 1 channel
Channel positions : Front: C
Sampling rate : 44.1 KHz
Compression mode : Lossy
Delay relative to video : -1s 24ms
Stream size : 57.2 MiB (8%)
Language : Russian



Релиз от:



   Похожие торренты   Торрент   Размер 
В этой теме нет новых непрочитанных сообщений. National Geographic: 10 сценариев конца света / National Geographic:10 Ways to End the World [01-02 из 02] (2011) PDTVRip

10 | 2

1.19 ГБ

В этой теме нет новых непрочитанных сообщений. Самая полезная программа [01-11 из 11] (2015) PDTVRip-AVC от SDARMY

70 | 22

4.52 ГБ

В этой теме нет новых непрочитанных сообщений. Секретное оружие шпионов (2015) PDTVRip-AVC от SDARMY

172 | 6

289.54 МБ

В этой теме нет новых непрочитанных сообщений. Колыбель человечества: украденная правда (2015) PDTVRip-AVC от SDARMY

199 | 17

863.05 МБ

В этой теме нет новых непрочитанных сообщений. Самая полезная программа [01-11 из 11] (2015) PDTVRip-AVC от SDARMY | PROPER

65 | 21

4.52 ГБ

В этой теме нет новых непрочитанных сообщений. Колыбель человечества: украденная правда (2015) PDTVRip-AVC от SDARMY | PROPER

283 | 12

842.48 МБ

В этой теме нет новых непрочитанных сообщений. Колыбель человечества: украденная правда (2015) PDTVRip-AVC от SDARMY | PROPER2

60 | 2

830.1 МБ




Вы не можете начинать темы
Вы не можете отвечать на сообщения
Вы не можете редактировать свои сообщения
Вы не можете удалять свои сообщения
Вы не можете добавлять вложения

Перейти:  
Для Мосгорсуда, Роскомнадзора и рекламодателей: mosgorsud-torrent[собачка]yandex.ru
Настройки
ppkBB3cker v.2 © 2008-2014 @ PPK
[ Time : 0.015s | 15 Queries | GZIP : Off ]
CGP [Extreme] output time : 0.00068s | 0 Queries | GZIP : Off

Торрент трекер RUTOR.IN, Не можете зайти на rutor.org? Какой новый адрес рутор? Какое зеркало рутор? Не работает rutor.org и зеркала? Тогда наш торрент специально для вас. Rutor.in неофициальное зеркало rutor. В случае если у Вас заблокирован rutor или вдруг Вы не можете на него зайти, то Вы без труда сможете скачать бесплатно и без рекламы последние новинки кино, игр, сериалов и прочего у нас, на Rutor.in. Не нужно использовать прокси, чтобы зайти на рутор, достаточно воспользоваться нашим ресурсом. Все новые фильмы, игры, сериалы, книги и музыка за 2013 и 2014 годы через торрент бесплатно. Скачивайте фильмы в хорошем качестве, игры для пк, xbox, playstation без регистрации. У нас вы найдете новые Зарубежные сериалы и Русские сериалы 2013, 2014, 2015 годов. Оставайтесь с нами, качайте любимые фильмы, игры, сериалы, книги и музыку.