img image001 image001 image001 image001 image001 image001 image001 image001 image001 image001 image001 image001 image001 image001 image001

Planets Sun Sun Sun
Статистика раздачи
Автор: Nickolas3434 | Размер: 589.63 МБ | Добавлен: 31 янв 2016
Раздают: 70    Качают: 39
Скачать торрент
Скачать торрент
Описание торрента

СообщениеДобавлено: 31 янв 2016 

Теория Заговора. ГОСТы


#77
Год выпуска: 16.01.2016
Страна: Россия
Студия: Первый Канал HD
Жанр: Документальный
Продолжительность: 0:43:52
Автор и руководитель цикла: Андрей Сычев
Режиссеры: Алексей Булейко, Кирилл Ващенко
Ведущий: Михаил Мамаев

Описание: Производители сейчас не обязаны писать на упаковке, как они сделали продукт: по ГОСТу или по ТУ. Если они пишут на фантике ГОСТ – это их личное желание. А по факту – маркетинговый ход. Они уверены, если мы с вами видим надпись ГОСТ, то перед нами знак качества. Современные ГОСТы ничего общего не имеют с теми, что были разработаны в 30-е годы. Они много раз изменялись, дополнялись и переписывались. И при этом никогда не ужесточались условия производства, а только смягчались, вводились добавки, допустимые ингредиенты.

Автор рипа: lrn
Автор записи: GeneralFilm
Сэмпл: sendfile

Тип релиза: HDTVRip-AVC
Контейнер: MKV
Видео: 1024x576 (16:9), 25,000 fps, H264, ~1500 kbps avg, ~0.102 bit/pixel
Аудио: 48 kHz, AC3 Dolby Digital, 3/2 (L,C,R,l,r) + LFE ch, ~384.00 kbps avg

General
Unique ID : 206924143787307298274195468659669449872 (0x9BAC23F6150BA07E9D07BF5B3299BC90)
Complete name : E:uTorrent.TempTempTeoriya.Zagovora.(2016.01.30).HDTVRip-AVC.x264-lrn.mkv
Format : Matroska
Format version : Version 4 / Version 2
File size : 590 MiB
Duration : 43mn 42s
Overall bit rate : 1 886 Kbps
Movie name : Teoriya.Zagovora.(2016.01.30).HDTVRip-AVC.x264-lrn
Encoded date : UTC 2010-02-22 21:41:31
Writing application : mkvmerge v5.9.0 ('On The Loose') built on Dec 9 2012 15:37:01
Writing library : libebml v1.3.0 + libmatroska v1.4.0
Video
ID : 1
Format : AVC
Format/Info : Advanced Video Codec
Format profile : High@L4.1
Format settings, CABAC : Yes
Format settings, ReFrames : 8 frames
Codec ID : V_MPEG4/ISO/AVC
Duration : 43mn 42s
Bit rate : 1 500 Kbps
Width : 1 024 pixels
Height : 576 pixels
Display aspect ratio : 16:9
Frame rate mode : Constant
Frame rate : 25.000 fps
Color space : YUV
Chroma subsampling : 4:2:0
Bit depth : 8 bits
Scan type : Progressive
Bits/(Pixel*Frame) : 0.102
Stream size : 458 MiB (78%)
Writing library : x264 core 148 r2638 7599210
Encoding settings : cabac=1 / ref=8 / deblock=1:-3:-3 / analyse=0x3:0x133 / me=umh / subme=9 / psy=1 / psy_rd=1.00:0.00 / mixed_ref=1 / me_range=32 / chroma_me=1 / trellis=2 / 8x8dct=1 / cqm=0 / deadzone=21,11 / fast_pskip=1 / chroma_qp_offset=-2 / threads=12 / lookahead_threads=2 / sliced_threads=0 / nr=0 / decimate=1 / interlaced=0 / bluray_compat=0 / constrained_intra=0 / bframes=8 / b_pyramid=2 / b_adapt=2 / b_bias=0 / direct=3 / weightb=1 / open_gop=0 / weightp=2 / keyint=250 / keyint_min=25 / scenecut=40 / intra_refresh=0 / rc_lookahead=50 / rc=2pass / mbtree=1 / bitrate=1500 / ratetol=1.0 / qcomp=0.60 / qpmin=0 / qpmax=69 / qpstep=4 / cplxblur=20.0 / qblur=0.5 / vbv_maxrate=62500 / vbv_bufsize=78125 / nal_hrd=none / filler=0 / ip_ratio=1.40 / aq=1:1.00
Default : Yes
Forced : No
Statistics Tags Issue : mkvmerge v8.5.2 ('Crosses') 32bit 2016-01-30 15:19:06 / mkvmerge v5.9.0 ('On The Loose') built on Dec 9 2012 15:37:01 2010-02-22 21:41:31
FromStats_BitRate : 1499960
FromStats_Duration : 00:43:42.920000000
FromStats_FrameCount : 65573
FromStats_StreamSize : 491784437
Audio
ID : 2
Format : AC-3
Format/Info : Audio Coding 3
Mode extension : CM (complete main)
Format settings, Endianness : Big
Codec ID : A_AC3
Duration : 43mn 42s
Bit rate mode : Constant
Bit rate : 384 Kbps
Channel(s) : 6 channels
Channel positions : Front: L C R, Side: L R, LFE
Sampling rate : 48.0 KHz
Frame rate : 31.250 fps (1536 spf)
Compression mode : Lossy
Stream size : 120 MiB (20%)
Language : Russian
Default : Yes
Forced : No
raw [info]: 1024x576p 1:1 @ 25/1 fps (cfr)
x264 [info]: using SAR=1/1
x264 [info]: using cpu capabilities: MMX2 SSE2Fast SSSE3 SSE4.2 AVX
x264 [info]: profile High, level 4.1
x264 [info]: frame I:799 Avg QP:16.79 size: 78851
x264 [info]: frame P:17979 Avg QP:20.16 size: 16150
x264 [info]: frame B:46795 Avg QP:23.25 size: 2958
x264 [info]: consecutive B-frames: 3.9% 6.0% 7.8% 64.3% 7.4% 6.9% 1.6% 1.6% 0.6%
x264 [info]: mb I I16..4: 7.9% 71.0% 21.1%
x264 [info]: mb P I16..4: 2.1% 6.2% 0.7% P16..4: 45.0% 13.8% 13.0% 0.5% 0.2% skip:18.4%
x264 [info]: mb B I16..4: 0.1% 0.5% 0.1% B16..8: 33.4% 4.1% 0.9% direct: 2.3% skip:58.6% L0:38.5% L1:50.0% BI:11.6%
x264 [info]: 8x8 transform intra:69.5% inter:63.9%
x264 [info]: direct mvs spatial:94.5% temporal:5.5%
x264 [info]: coded y,uvDC,uvAC intra: 67.9% 74.6% 40.1% inter: 12.0% 14.5% 1.2%
x264 [info]: i16 v,h,dc,p: 26% 20% 6% 47%
x264 [info]: i8 v,h,dc,ddl,ddr,vr,hd,vl,hu: 12% 14% 7% 8% 11% 11% 13% 10% 13%
x264 [info]: i4 v,h,dc,ddl,ddr,vr,hd,vl,hu: 15% 14% 4% 8% 12% 12% 12% 10% 12%
x264 [info]: i8c dc,h,v,p: 33% 31% 20% 16%
x264 [info]: Weighted P-Frames: Y:2.3% UV:1.0%
x264 [info]: ref P L0: 57.0% 13.0% 14.8% 4.6% 3.6% 2.7% 2.4% 1.6% 0.2% 0.0%
x264 [info]: ref B L0: 83.8% 9.0% 3.5% 1.5% 1.1% 0.7% 0.4%
x264 [info]: ref B L1: 95.8% 4.2%
x264 [info]: kb/s:1499.96
encoded 65573 frames, 28.67 fps, 1499.96 kb/s



   Похожие торренты   Торрент   Размер 
В этой теме нет новых непрочитанных сообщений. Теория Заговора. ГОСТы [30.01] (2016) HDTVRip 720p

220 | 9

1.34 ГБ

В этой теме нет новых непрочитанных сообщений. Теория заговора. ГОСТы [Эфир 30.01] (2016) HDTVRip от GeneralFilm

641 | 21

624.79 МБ

В этой теме нет новых непрочитанных сообщений. Теория заговора. ГОСТы [Эфир 30.01] (2016) HDTV 1080i от GeneralFilm

99 | 13

2.2 ГБ

В этой теме нет новых непрочитанных сообщений. Теория Заговора. Соль [06.02] (2016) HDTVRip-AVC

96 | 5

592.32 МБ

В этой теме нет новых непрочитанных сообщений. Теория Заговора. Хлеб [30.04] (2016) HDTVRip-AVC

27 | 2

634.27 МБ

В этой теме нет новых непрочитанных сообщений. Теория Заговора. Бакалея [09.04] (2016) HDTVRip-AVC

9 | 1

574.94 МБ

В этой теме нет новых непрочитанных сообщений. Теория Заговора. Рыба [21.02] (2016) HDTVRip-AVC

83 | 7

593.26 МБ




Вы не можете начинать темы
Вы не можете отвечать на сообщения
Вы не можете редактировать свои сообщения
Вы не можете удалять свои сообщения
Вы не можете добавлять вложения

Перейти:  
Для Мосгорсуда, Роскомнадзора и рекламодателей: mosgorsud-torrent[собачка]yandex.ru
 Вход
ppkBB3cker v.2 © 2008-2014 @ PPK
[ Time : 0.067s | 15 Queries | GZIP : Off ]

Торрент трекер RUTOR.IN, Не можете зайти на rutor.org? Какой новый адрес рутор? Какое зеркало рутор? Не работает rutor.org и зеркала? Тогда наш торрент специально для вас. Rutor.in неофициальное зеркало rutor. В случае если у Вас заблокирован rutor или вдруг Вы не можете на него зайти, то Вы без труда сможете скачать бесплатно и без рекламы последние новинки кино, игр, сериалов и прочего у нас, на Rutor.in. Не нужно использовать прокси, чтобы зайти на рутор, достаточно воспользоваться нашим ресурсом. Все новые фильмы, игры, сериалы, книги и музыка за 2013 и 2014 годы через торрент бесплатно. Скачивайте фильмы в хорошем качестве, игры для пк, xbox, playstation без регистрации. У нас вы найдете новые Зарубежные сериалы и Русские сериалы 2013, 2014, 2015 годов. Оставайтесь с нами, качайте любимые фильмы, игры, сериалы, книги и музыку.