img image001 image001 image001 image001 image001 image001 image001 image001 image001 image001 image001 image001 image001 image001 image001

Planets Sun Sun Sun
Статистика раздачи
Автор: Nickolas3434 | Размер: 660.98 МБ | Добавлен: 10 фев 2016
Раздают: 76    Качают: 4
Скачать торрент
Скачать торрент
Описание торрента

СообщениеДобавлено: 10 фев 2016 


Информация о фильме
Название: Тропой волка
Год выхода: 2007
Жанр: Документальный
Режиссер: Игорь Бышнёв
О фильме:
С давних времен волк считался вредным видом, что побуждало людей его массово уничтожать. В наше время ученые доказали, что эти умные и необычайно красивые животные играют очень важную роль в природе. Об этом и повествует фильм.
Награды:
Фильм получил награды: 1-е место на X Международном телекинофоруме «Вместе» в номинации «научно-популярные и познавательные программы» (Ялта, Украина, 2008).
Диплом IV Международного экологического кинотелефорума «Экомир» за лучшую режиссуру (Минск, Беларусь, 2008).
Благодарность:
Исходник для данной раздачи, записан с цифрового наземного канала, т.е. DVB-Т, любезно предоставлен PavelDAS
За что ему большое спасибо!
Запись потока *.ts с наземного цифрового телеканала "Беларусь 3", ремукс в *.mkv программой VideoReDo.

Страна: Республика Беларусь
Студия: Белвидеоцентр
Продолжительность: 00:36:57
Перевод: не требует
Файл
Кодек: AVC (H264)
Качество: DVB
Видео: AVC (H264), 720x576 (4:3), 25 fps, 2 195 Kbps
Звук: MP2, 256 kbps, 2 channels, 48 kHz
Код:
General
Unique ID                      : 215901944240768527733311621629878373620 (0xA26D33B2C394894DDEFF475EBDEE8CF4)
Complete name                  : D:Новая  земля 2\001 Документальный фильмыПриродаТропой волка (2007)Тропой волка (2007).mkv
Format                         : Matroska
Format version                 : Version 2
File size                      : 661 MiB
Duration                       : 36mn 57s
Overall bit rate               : 2 500 Kbps
Writing application            : Lavf52.64.2
Writing library                : Lavf52.64.2
Video
ID                             : 1
Format                         : AVC
Format/Info                    : Advanced Video Codec
Format profile                 : Main@L3.0
Format settings, CABAC         : Yes
Format settings, ReFrames      : 4 frames
Format settings, GOP           : M=4, N=24
Codec ID                       : V_MPEG4/ISO/AVC
Duration                       : 36mn 57s
Bit rate                       : 2 195 Kbps
Width                          : 720 pixels
Height                         : 576 pixels
Display aspect ratio           : 4:3
Original display aspect ratio  : 4:3
Frame rate mode                : Constant
Frame rate                     : 25.000 fps
Standard                       : PAL
Color space                    : YUV
Chroma subsampling             : 4:2:0
Bit depth                      : 8 bits
Scan type                      : MBAFF
Scan order                     : Top Field First
Bits/(Pixel*Frame)             : 0.212
Stream size                    : 580 MiB (88%)
Default                        : Yes
Forced                         : No
Color primaries                : BT.601 PAL
Transfer characteristics       : BT.470 System B, BT.470 System G
Matrix coefficients            : BT.601
Color range                    : Limited
Audio
ID                             : 2
Format                         : MPEG Audio
Format version                 : Version 1
Format profile                 : Layer 2
Codec ID                       : A_MPEG/L2
Codec ID/Hint                  : MP2
Duration                       : 36mn 57s
Bit rate mode                  : Constant
Bit rate                       : 256 Kbps
Channel(s)                     : 2 channels
Sampling rate                  : 48.0 KHz
Compression mode               : Lossy
Stream size                    : 67.7 MiB (10%)
Language                       : English
Default                        : Yes
Forced                         : No
 




   Похожие торренты   Торрент   Размер 
В этой теме нет новых непрочитанных сообщений. Заповедной тропой (Беларусь) (2005) SATRip от AND03AND

60 | 16

1.61 ГБ

В этой теме нет новых непрочитанных сообщений. Год волка / Suden vuos (2007) DVDRip

2 | 1

778.47 МБ

В этой теме нет новых непрочитанных сообщений. Время Пса и Волка / Gaewa neukdaeui sigan [S01] (2007) HDTVRip 720р | L1

26 | 7

23.27 ГБ

В этой теме нет новых непрочитанных сообщений. Славянский базар 2007. Антология (2007) DVB от AND03AND

2 | 2

1012.52 МБ

В этой теме нет новых непрочитанных сообщений. Брунсвиг - Тропой Волков (2015) МР3

6 | 6

33.02 МБ

В этой теме нет новых непрочитанных сообщений. Тропой бескорыстной любви (1972) DVDRip от ExKinoRay

472 | 19

1.31 ГБ

В этой теме нет новых непрочитанных сообщений. Спектакль - Чудаки (2007) DVB от AND03AND

23 | 23

3.4 ГБ




Вы не можете начинать темы
Вы не можете отвечать на сообщения
Вы не можете редактировать свои сообщения
Вы не можете удалять свои сообщения
Вы не можете добавлять вложения

Перейти:  
Для Мосгорсуда, Роскомнадзора и рекламодателей: mosgorsud-torrent[собачка]yandex.ru
 Вход
ppkBB3cker v.2 © 2008-2014 @ PPK
[ Time : 0.051s | 14 Queries | GZIP : On ]

Торрент трекер RUTOR.IN, Не можете зайти на rutor.org? Какой новый адрес рутор? Какое зеркало рутор? Не работает rutor.org и зеркала? Тогда наш торрент специально для вас. Rutor.in неофициальное зеркало rutor. В случае если у Вас заблокирован rutor или вдруг Вы не можете на него зайти, то Вы без труда сможете скачать бесплатно и без рекламы последние новинки кино, игр, сериалов и прочего у нас, на Rutor.in. Не нужно использовать прокси, чтобы зайти на рутор, достаточно воспользоваться нашим ресурсом. Все новые фильмы, игры, сериалы, книги и музыка за 2013 и 2014 годы через торрент бесплатно. Скачивайте фильмы в хорошем качестве, игры для пк, xbox, playstation без регистрации. У нас вы найдете новые Зарубежные сериалы и Русские сериалы 2013, 2014, 2015 годов. Оставайтесь с нами, качайте любимые фильмы, игры, сериалы, книги и музыку.