img image001 image001 image001 image001 image001 image001 image001 image001 image001 image001 image001 image001 image001 image001 image001

Planets Sun Sun Sun
Статистика раздачи
Автор: Nickolas3434 | Размер: 594.93 МБ | Добавлен: 16 фев 2016
Раздают: 31    Качают: 4
Скачать торрент
Скачать торрент
Описание торрента

СообщениеДобавлено: 16 фев 2016 

Теория Заговора. Сладости


#77
Год выпуска: 13.02.2016
Страна: Россия
Студия: Первый Канал HD
Жанр: Документальный
Продолжительность: 0:44:06
Автор и руководитель цикла: Андрей Сычев
Режиссеры: Алексей Булейко, Кирилл Ващенко
Ведущий: Михаил Мамаев

Описание: Современный человек за год съедает 50-килограммовый мешок сахара. Но это ещё полбеды, беда в том, что вместе с сахаром мы поглощаем килограммы самой настоящей "химии". Сколько добавок в одной конфетке - одному производителю известно. Год от года различных заменителей, красителей и усилителей вкуса появляется все больше. Ведь технология не стоит на месте. Авторы программы расскажут, как выбрать качественные конфеты и торты. И развенчают мифы, связанные со сладостями.

Автор рипа: lrn
Автор записи: GeneralFilm
Сэмпл: sendfile

Тип релиза: HDTVRip-AVC
Контейнер: MKV
Видео: 1024x576 (16:9), 25,000 fps, H264, ~1500 kbps avg, ~0.102 bit/pixel
Аудио: 48 kHz, AC3 Dolby Digital, 3/2 (L,C,R,l,r) + LFE ch, ~384.00 kbps avg

General
Unique ID : 173514253206886524240932682088283318000 (0x8289A12DA8118AAFBFCF5EAEB3BF26F0)
Complete name : E:uTorrent.TempTempTeoriya.Zagovora.(2016.02.13).HDTVRip-AVC.x264-lrn.mkv
Format : Matroska
Format version : Version 4 / Version 2
File size : 595 MiB
Duration : 44mn 6s
Overall bit rate : 1 886 Kbps
Movie name : Teoriya.Zagovora.(2016.02.13).HDTVRip-AVC.x264-lrn
Encoded date : UTC 2010-02-22 21:41:31
Writing application : mkvmerge v5.9.0 ('On The Loose') built on Dec 9 2012 15:37:01
Writing library : libebml v1.3.0 + libmatroska v1.4.0
Video
ID : 1
Format : AVC
Format/Info : Advanced Video Codec
Format profile : High@L4.1
Format settings, CABAC : Yes
Format settings, ReFrames : 8 frames
Codec ID : V_MPEG4/ISO/AVC
Duration : 44mn 6s
Bit rate : 1 500 Kbps
Width : 1 024 pixels
Height : 576 pixels
Display aspect ratio : 16:9
Frame rate mode : Constant
Frame rate : 25.000 fps
Color space : YUV
Chroma subsampling : 4:2:0
Bit depth : 8 bits
Scan type : Progressive
Bits/(Pixel*Frame) : 0.102
Stream size : 462 MiB (78%)
Writing library : x264 core 148 r2638 7599210
Encoding settings : cabac=1 / ref=8 / deblock=1:-3:-3 / analyse=0x3:0x133 / me=umh / subme=9 / psy=1 / psy_rd=1.00:0.00 / mixed_ref=1 / me_range=32 / chroma_me=1 / trellis=2 / 8x8dct=1 / cqm=0 / deadzone=21,11 / fast_pskip=1 / chroma_qp_offset=-2 / threads=12 / lookahead_threads=2 / sliced_threads=0 / nr=0 / decimate=1 / interlaced=0 / bluray_compat=0 / constrained_intra=0 / bframes=8 / b_pyramid=2 / b_adapt=2 / b_bias=0 / direct=3 / weightb=1 / open_gop=0 / weightp=2 / keyint=250 / keyint_min=25 / scenecut=40 / intra_refresh=0 / rc_lookahead=50 / rc=2pass / mbtree=1 / bitrate=1500 / ratetol=1.0 / qcomp=0.60 / qpmin=0 / qpmax=69 / qpstep=4 / cplxblur=20.0 / qblur=0.5 / vbv_maxrate=62500 / vbv_bufsize=78125 / nal_hrd=none / filler=0 / ip_ratio=1.40 / aq=1:1.00
Default : Yes
Forced : No
Statistics Tags Issue : mkvmerge v8.5.2 ('Crosses') 32bit 2016-02-14 08:58:07 / mkvmerge v5.9.0 ('On The Loose') built on Dec 9 2012 15:37:01 2010-02-22 21:41:31
FromStats_BitRate : 1500091
FromStats_Duration : 00:44:06.360000000
FromStats_FrameCount : 66159
FromStats_StreamSize : 496222848
Audio
ID : 2
Format : AC-3
Format/Info : Audio Coding 3
Mode extension : CM (complete main)
Format settings, Endianness : Big
Codec ID : A_AC3
Duration : 44mn 6s
Bit rate mode : Constant
Bit rate : 384 Kbps
Channel(s) : 6 channels
Channel positions : Front: L C R, Side: L R, LFE
Sampling rate : 48.0 KHz
Frame rate : 31.250 fps (1536 spf)
Compression mode : Lossy
Stream size : 121 MiB (20%)
Language : Russian
Default : Yes
Forced : No
raw [info]: 1024x576p 1:1 @ 25/1 fps (cfr)
x264 [info]: using SAR=1/1
x264 [info]: using cpu capabilities: MMX2 SSE2Fast SSSE3 SSE4.2 AVX
x264 [info]: profile High, level 4.1
x264 [info]: frame I:689 Avg QP:16.75 size: 70202
x264 [info]: frame P:17694 Avg QP:19.86 size: 16805
x264 [info]: frame B:47776 Avg QP:23.47 size: 3150
x264 [info]: consecutive B-frames: 3.2% 4.9% 7.4% 65.0% 7.4% 9.4% 1.2% 1.0% 0.4%
x264 [info]: mb I I16..4: 8.7% 69.7% 21.6%
x264 [info]: mb P I16..4: 2.4% 7.5% 1.0% P16..4: 44.6% 14.4% 12.8% 0.5% 0.2% skip:16.6%
x264 [info]: mb B I16..4: 0.2% 0.5% 0.1% B16..8: 33.9% 4.6% 1.0% direct: 2.4% skip:57.4% L0:38.2% L1:49.9% BI:11.8%
x264 [info]: 8x8 transform intra:69.1% inter:63.3%
x264 [info]: direct mvs spatial:95.1% temporal:4.9%
x264 [info]: coded y,uvDC,uvAC intra: 66.7% 73.5% 37.1% inter: 12.1% 15.2% 1.1%
x264 [info]: i16 v,h,dc,p: 25% 19% 6% 50%
x264 [info]: i8 v,h,dc,ddl,ddr,vr,hd,vl,hu: 12% 12% 6% 8% 12% 12% 13% 11% 13%
x264 [info]: i4 v,h,dc,ddl,ddr,vr,hd,vl,hu: 13% 12% 4% 8% 14% 12% 13% 10% 13%
x264 [info]: i8c dc,h,v,p: 35% 28% 19% 18%
x264 [info]: Weighted P-Frames: Y:2.6% UV:1.3%
x264 [info]: ref P L0: 57.1% 12.9% 15.1% 4.4% 3.6% 2.6% 2.5% 1.6% 0.2% 0.0%
x264 [info]: ref B L0: 85.4% 8.4% 3.0% 1.3% 0.9% 0.6% 0.4%
x264 [info]: ref B L1: 96.1% 3.9%
x264 [info]: kb/s:1500.09
encoded 66159 frames, 27.62 fps, 1500.09 kb/s



   Похожие торренты   Торрент   Размер 
В этой теме нет новых непрочитанных сообщений. Теория Заговора. Сладости [13.02] (2016) HDTVRip 720p

41 | 1

1.35 ГБ

В этой теме нет новых непрочитанных сообщений. Теория заговора. Сладости [Эфир 13.02] (2016) HDTVRip от GeneralFilm

959 | 76

631.41 МБ

В этой теме нет новых непрочитанных сообщений. Теория заговора. Сладости для похудения [30.10] (2016) HDTVRip от GeneralFilm

26 | 7

632.6 МБ

В этой теме нет новых непрочитанных сообщений. Теория заговора. Сладости для похудения [30.10] (2016) HDTV 1080i от GeneralFilm

2 | 3

2.25 ГБ

В этой теме нет новых непрочитанных сообщений. Теория заговора. Сладости [Эфир 13.02] (2016) HDTV 1080i от GeneralFilm

140 | 21

2.22 ГБ

В этой теме нет новых непрочитанных сообщений. Теория Заговора. Молоко [26.03] (2016) HDTVRip-AVC

26 | 0

573.64 МБ

В этой теме нет новых непрочитанных сообщений. Теория Заговора. Бакалея [09.04] (2016) HDTVRip-AVC

9 | 1

574.94 МБ




Вы не можете начинать темы
Вы не можете отвечать на сообщения
Вы не можете редактировать свои сообщения
Вы не можете удалять свои сообщения
Вы не можете добавлять вложения

Перейти:  
Для Мосгорсуда, Роскомнадзора и рекламодателей: mosgorsud-torrent[собачка]yandex.ru
 Вход
ppkBB3cker v.2 © 2008-2014 @ PPK
[ Time : 0.072s | 15 Queries | GZIP : Off ]

Торрент трекер RUTOR.IN, Не можете зайти на rutor.org? Какой новый адрес рутор? Какое зеркало рутор? Не работает rutor.org и зеркала? Тогда наш торрент специально для вас. Rutor.in неофициальное зеркало rutor. В случае если у Вас заблокирован rutor или вдруг Вы не можете на него зайти, то Вы без труда сможете скачать бесплатно и без рекламы последние новинки кино, игр, сериалов и прочего у нас, на Rutor.in. Не нужно использовать прокси, чтобы зайти на рутор, достаточно воспользоваться нашим ресурсом. Все новые фильмы, игры, сериалы, книги и музыка за 2013 и 2014 годы через торрент бесплатно. Скачивайте фильмы в хорошем качестве, игры для пк, xbox, playstation без регистрации. У нас вы найдете новые Зарубежные сериалы и Русские сериалы 2013, 2014, 2015 годов. Оставайтесь с нами, качайте любимые фильмы, игры, сериалы, книги и музыку.