img image001 image001 image001 image001 image001 image001 image001 image001 image001 image001 image001 image001 image001 image001 image001

Planets Sun Sun Sun
Статистика раздачи
Автор: Nickolas3434 | Размер: 3.28 ГБ | Добавлен: 16 фев 2016
Раздают: 160    Качают: 46
Скачать торрент
Скачать торрент
Описание торрента

СообщениеДобавлено: 16 фев 2016 


Информация о передаче
Название: «Территория заблуждений» с Игорем Прокопенко
Год выхода: 2016 (телеканал РЕН ТВ)
Жанр: документальный, сенсации, факты, теории
Режиссер-постановщик: Сергей Першин
Автор и ведущий: Игорь Прокопенко
Описание:
Большинство из нас уверены в том, что существует набор истин, которые не нуждаются в доказательствах. Например всем известно, что человек произошел от обезьяны, а Вселенная возникла в результате Большого Взрыва. Что Америка – самая демократическая страна, а распад Советского Союза - печальная неизбежность. Но так ли это на самом деле? Если отложить в сторону школьные учебники, да не воспринимать всерьез кинопродукцию Голливуда, то все получается не так уж однозначно. Допустим, что Вселенная возникла в результате Большого Взрыва. Но кто устроил этот Взрыв? А главное – что было до этого Взрыва? Ответа нет!
Выпуск 113 (эфир от 2016-01-23) [01:36:18]
Выпуск 114 (эфир от 2016-01-30) [01:36:06]
Выпуск 115 (эфир от 2016-02-06) [01:35:12]
Выпуск 116 (эфир от 2016-02-13) [01:36:22]

Страна: Россия
Производство: РЕН ТВ
Продолжительность: 4 по 01:35:12-01:36:22
Перевод: не требуется
Файл
Качество: PDTVRip-AVC (SDTV), MPEG-4 (ISO Base Media)
Кодек: AVC (High@L3.1) (CABAC / 5 RF), x264 core 148 r236 a01e339
Видео: Slow Preset (CRF 19), 944-1267 kb/s, 720x400 (16:9), 25.000 fps
Звук: AAC (LC), VBR 82.9-83.8 kb/s, Mono, 44.1 kHz, NeroAAC 1.5.4 & AACGain 1.9.0
Другое: исправлена резолюция [113-114]
Раздача ведется путем добавления новых выпусков! Как докачать последний выпуск?
General
Complete name : Territoriya.zabluzhdeny.s.Igorem.Prokopenko.E113.2016.01.23.PDTVRip.x264-SDARMY.mp4
Format : MPEG-4
Format profile : Base Media
Codec ID : isom
File size : 870 MiB
Duration : 1h 36mn
Overall bit rate mode : Variable
Overall bit rate : 1 263 Kbps
Movie name : «Территория заблуждений» с Игорем Прокопенко. Выпуск 113
Writing application : Lavf56.40.101
Video
ID : 1
Format : AVC
Format/Info : Advanced Video Codec
Format profile : High@L3.1
Format settings, CABAC : Yes
Format settings, ReFrames : 5 frames
Codec ID : avc1
Codec ID/Info : Advanced Video Coding
Duration : 1h 36mn
Bit rate : 1 173 Kbps
Width : 720 pixels
Height : 400 pixels
Display aspect ratio : 16:9
Frame rate mode : Constant
Frame rate : 25.000 fps
Color space : YUV
Chroma subsampling : 4:2:0
Bit depth : 8 bits
Scan type : Progressive
Bits/(Pixel*Frame) : 0.163
Stream size : 808 MiB (93%)
Writing library : x264 core 148 r236 a01e339
Encoding settings : cabac=1 / ref=5 / deblock=1:0:0 / analyse=0x3:0x113 / me=umh / subme=8 / psy=1 / psy_rd=1.00:0.00 / mixed_ref=1 / me_range=16 / chroma_me=1 / trellis=1 / 8x8dct=1 / cqm=0 / deadzone=21,11 / fast_pskip=1 / chroma_qp_offset=-2 / threads=3 / lookahead_threads=1 / sliced_threads=0 / nr=0 / decimate=1 / interlaced=0 / bluray_compat=0 / constrained_intra=0 / bframes=3 / b_pyramid=2 / b_adapt=2 / b_bias=0 / direct=3 / weightb=1 / open_gop=0 / weightp=2 / keyint=250 / keyint_min=25 / scenecut=40 / intra_refresh=0 / rc_lookahead=50 / rc=crf / mbtree=1 / crf=19.0 / qcomp=0.60 / qpmin=0 / qpmax=69 / qpstep=4 / ip_ratio=1.40 / aq=1:1.00
Language : Russian
Audio
ID : 2
Format : AAC
Format/Info : Advanced Audio Codec
Format profile : LC
Codec ID : 40
Duration : 1h 36mn
Bit rate mode : Variable
Bit rate : 83.5 Kbps
Maximum bit rate : 92.7 Kbps
Channel(s) : 1 channel
Channel positions : Front: C
Sampling rate : 44.1 KHz
Compression mode : Lossy
Delay relative to video : -1s 24ms
Stream size : 57.5 MiB (7%)
Language : Russian

Релиз от:



   Похожие торренты   Торрент   Размер 
В этой теме нет новых непрочитанных сообщений. Территория заблуждений с Игорем Прокопенко [121] (2016-03-19) PDTVRip-AVC от SDARMY | РЕН ТВ

305 | 20

911.49 МБ

В этой теме нет новых непрочитанных сообщений. Территория заблуждений с Игорем Прокопенко [113] (2016-01-23) PDTVRip-AVC от SDARMY | РЕН ТВ

0 | 87

928.07 МБ

В этой теме нет новых непрочитанных сообщений. Территория заблуждений с Игорем Прокопенко [113-119] (2016) PDTVRip-AVC от SDARMY

235 | 97

5.53 ГБ

В этой теме нет новых непрочитанных сообщений. Территория заблуждений с Игорем Прокопенко [120] (2016-03-12) PDTVRip-AVC от SDARMY | РЕН ТВ

0 | 149

898.81 МБ

В этой теме нет новых непрочитанных сообщений. Территория заблуждений с Игорем Прокопенко [113-117] (2016) PDTVRip-AVC от SDARMY

272 | 47

4.09 ГБ

В этой теме нет новых непрочитанных сообщений. Территория заблуждений с Игорем Прокопенко [113-118] (2016) PDTVRip-AVC от SDARMY

155 | 80

4.82 ГБ

В этой теме нет новых непрочитанных сообщений. Территория заблуждений с Игорем Прокопенко [113] (2016) PDTVRip-AVC от SDARMY

61 | 17

900.18 МБ




Вы не можете начинать темы
Вы не можете отвечать на сообщения
Вы не можете редактировать свои сообщения
Вы не можете удалять свои сообщения
Вы не можете добавлять вложения

Перейти:  
Для Мосгорсуда, Роскомнадзора и рекламодателей: mosgorsud-torrent[собачка]yandex.ru
 Вход
ppkBB3cker v.2 © 2008-2014 @ PPK
[ Time : 0.037s | 14 Queries | GZIP : Off ]

Торрент трекер RUTOR.IN, Не можете зайти на rutor.org? Какой новый адрес рутор? Какое зеркало рутор? Не работает rutor.org и зеркала? Тогда наш торрент специально для вас. Rutor.in неофициальное зеркало rutor. В случае если у Вас заблокирован rutor или вдруг Вы не можете на него зайти, то Вы без труда сможете скачать бесплатно и без рекламы последние новинки кино, игр, сериалов и прочего у нас, на Rutor.in. Не нужно использовать прокси, чтобы зайти на рутор, достаточно воспользоваться нашим ресурсом. Все новые фильмы, игры, сериалы, книги и музыка за 2013 и 2014 годы через торрент бесплатно. Скачивайте фильмы в хорошем качестве, игры для пк, xbox, playstation без регистрации. У нас вы найдете новые Зарубежные сериалы и Русские сериалы 2013, 2014, 2015 годов. Оставайтесь с нами, качайте любимые фильмы, игры, сериалы, книги и музыку.