img image001 image001 image001 image001 image001 image001 image001 image001 image001 image001 image001 image001 image001 image001 image001

Planets Sun Sun Sun
Статистика раздачи
Автор: Nickolas3434 | Размер: 879.37 МБ | Добавлен: 18 фев 2016
Раздают: 121    Качают: 12
Скачать торрент
Скачать торрент
Описание торрента

СообщениеДобавлено: 18 фев 2016 


Информация о фильме
Название: Незваные гости
Дата эфира: 2016-02-12 (телеканал РЕН ТВ)
Жанр: документальный, Европа, беженцы, беспредел
Описание:
Как волна миграции захватывает Европу. За последний год на территорию Евросоюза прибыло несколько миллионов беженцев. Они бегут из Сирии, Ливии, Ирака, Марокко и Украины. Толпы голодных и нищих, временные лагеря, закрытые границы, переполненные приюты, стачки с полицией, грязь, беспредел... Такого европейцы не видели со времен Второй мировой войны. Бегут ли эти люди от голода? От войны? Безопасны ли они для смиренных граждан? Кто же они на самом деле – беженцы, заполонившие Европу? Учителя, врачи, инженеры, бежавшие в поисках мирной жизни для своих семей? Или агрессивные завоеватели новых земель?
Страна: Россия
Производство: ООО «Продюсерский центр Гвардия»
Продолжительность: 01:35:30
Перевод: не требуется
Файл
Качество: PDTVRip-AVC (SDTV), MPEG-4 (ISO Base Media)
Кодек: AVC (High@L3.1) (CABAC / 5 RF), x264 core 148 r236 a01e339
Видео: Slow Preset (CRF 19), 1198 kb/s, 720x400 (16:9), 25.000 fps
Звук: AAC (LC), VBR 82.8 kb/s, Mono, 44.1 kHz, NeroAAC 1.5.4 & AACGain 1.9.0
General
Complete name : Nezvanye.gosti.2016.02.12.PDTVRip.x264-SDARMY.mp4
Format : MPEG-4
Format profile : Base Media
Codec ID : isom
File size : 879 MiB
Duration : 1h 35mn
Overall bit rate : 1 287 Kbps
Movie name : Незваные гости
Writing application : Lavf57.25.100
Video
ID : 1
Format : AVC
Format/Info : Advanced Video Codec
Format profile : High@L3.1
Format settings, CABAC : Yes
Format settings, ReFrames : 5 frames
Codec ID : avc1
Codec ID/Info : Advanced Video Coding
Duration : 1h 35mn
Bit rate : 1 198 Kbps
Width : 720 pixels
Height : 400 pixels
Display aspect ratio : 16:9
Frame rate mode : Constant
Frame rate : 25.000 fps
Color space : YUV
Chroma subsampling : 4:2:0
Bit depth : 8 bits
Scan type : Progressive
Bits/(Pixel*Frame) : 0.166
Stream size : 818 MiB (93%)
Writing library : x264 core 148 r236 a01e339
Encoding settings : cabac=1 / ref=5 / deblock=1:0:0 / analyse=0x3:0x113 / me=umh / subme=8 / psy=1 / psy_rd=1.00:0.00 / mixed_ref=1 / me_range=16 / chroma_me=1 / trellis=1 / 8x8dct=1 / cqm=0 / deadzone=21,11 / fast_pskip=1 / chroma_qp_offset=-2 / threads=3 / lookahead_threads=1 / sliced_threads=0 / nr=0 / decimate=1 / interlaced=0 / bluray_compat=0 / constrained_intra=0 / bframes=3 / b_pyramid=2 / b_adapt=2 / b_bias=0 / direct=3 / weightb=1 / open_gop=0 / weightp=2 / keyint=250 / keyint_min=25 / scenecut=40 / intra_refresh=0 / rc_lookahead=50 / rc=crf / mbtree=1 / crf=19.0 / qcomp=0.60 / qpmin=0 / qpmax=69 / qpstep=4 / ip_ratio=1.40 / aq=1:1.00
Language : Russian
Audio
ID : 2
Format : AAC
Format/Info : Advanced Audio Codec
Format profile : LC
Codec ID : 40
Duration : 1h 35mn
Bit rate mode : Constant
Bit rate : 82.8 Kbps
Channel(s) : 1 channel
Channel positions : Front: C
Sampling rate : 44.1 KHz
Compression mode : Lossy
Delay relative to video : -1s 24ms
Stream size : 56.6 MiB (6%)
Language : Russian

Релиз от:



   Похожие торренты   Торрент   Размер 
В этой теме нет новых непрочитанных сообщений. Голод (2016) PDTVRip-AVC от SDARMY

88 | 3

893.3 МБ

В этой теме нет новых непрочитанных сообщений. Потомки Ариев (2016) PDTVRip-AVC от SDARMY | РЕН ТВ

1218 | 83

823.96 МБ

В этой теме нет новых непрочитанных сообщений. Самая полезная программа [12-13] (2016) PDTVRip-AVC от SDARMY

28 | 3

809.13 МБ

В этой теме нет новых непрочитанных сообщений. Самые ужасные эпидемии (2016) PDTVRip-AVC от SDARMY

38 | 1

824.71 МБ

В этой теме нет новых непрочитанных сообщений. Природа объявляет войну (2016) PDTVRip-AVC от SDARMY

237 | 28

769.72 МБ

В этой теме нет новых непрочитанных сообщений. Самая полезная программа [12 из ХХ] (2016) PDTVRip-AVC от SDARMY

70 | 6

419.16 МБ

В этой теме нет новых непрочитанных сообщений. Сильные мира сего (2016) PDTVRip-AVC от SDARMY

329 | 6

732.08 МБ




Вы не можете начинать темы
Вы не можете отвечать на сообщения
Вы не можете редактировать свои сообщения
Вы не можете удалять свои сообщения
Вы не можете добавлять вложения

Перейти:  
Для Мосгорсуда, Роскомнадзора и рекламодателей: mosgorsud-torrent[собачка]yandex.ru
 Вход
ppkBB3cker v.2 © 2008-2014 @ PPK
[ Time : 0.021s | 14 Queries | GZIP : Off ]

Торрент трекер RUTOR.IN, Не можете зайти на rutor.org? Какой новый адрес рутор? Какое зеркало рутор? Не работает rutor.org и зеркала? Тогда наш торрент специально для вас. Rutor.in неофициальное зеркало rutor. В случае если у Вас заблокирован rutor или вдруг Вы не можете на него зайти, то Вы без труда сможете скачать бесплатно и без рекламы последние новинки кино, игр, сериалов и прочего у нас, на Rutor.in. Не нужно использовать прокси, чтобы зайти на рутор, достаточно воспользоваться нашим ресурсом. Все новые фильмы, игры, сериалы, книги и музыка за 2013 и 2014 годы через торрент бесплатно. Скачивайте фильмы в хорошем качестве, игры для пк, xbox, playstation без регистрации. У нас вы найдете новые Зарубежные сериалы и Русские сериалы 2013, 2014, 2015 годов. Оставайтесь с нами, качайте любимые фильмы, игры, сериалы, книги и музыку.