img image001 image001 image001 image001 image001 image001 image001 image001 image001 image001 image001 image001 image001 image001 image001

Planets Sun Sun Sun
Статистика раздачи
Автор: Nickolas3434 | Размер: 1.52 ГБ | Добавлен: 23 фев 2016
Раздают: 26    Качают: 11
Скачать торрент
Скачать торрент
Описание торрента

СообщениеДобавлено: 23 фев 2016 

Леонид Куравлев. Афоня и Другие


#77
Дата/Год выпуска: 2016
Страна: Первый Канала HD | ООО "Контраст"
Жанр: Документальный
Продолжительность: 0:49:36
Режиссер: Георгий Ананов

Описание: У Леонида Куравлёва богатая фильмография – почти двести ролей. Но ни Жоржем Милославским, ни Хомой Брутом, ни Робинзоном его на улице не называют. А вот Афоней – запросто. Нередко актёры перед съёмками специально погружаются в среду, которая описана в сценарии. Если предстоит играть хирурга - часами стоят в операционной, если учителя – сидят на уроках в школе. Леониду Куравлёву не пришлось погружаться. "Создавать себя алкоголиком не пришлось. Я из очень простых корней, я москвич, но на окраине жил у тетки - рядом с Измайловым.

Автор рипа: lrn
Автор записи: GeneralFilm
Сэмпл: sendfile

Тип релиза: HDTVRip 720p
Контейнер: MKV
Видео: 1280x720 (16:9), 25,000 fps, H264, ~4000 kbps avg, ~0.174 bit/pixel
Аудио: 48 kHz, AC3 Dolby Digital, 3/2 (L,C,R,l,r) + LFE ch, ~384.00 kbps avg

General
Unique ID : 245530734327915070154012995484091773438 (0xB8B77FD576C77CCEB0EBB54AC9E171FE)
Complete name : E:uTorrent.TempTempLeonid.Kuravlev.Afonya.i.Drugie.2016.HDTVRip.720p.x264-lrn.mkv
Format : Matroska
Format version : Version 4 / Version 2
File size : 1.52 GiB
Duration : 49mn 36s
Overall bit rate : 4 385 Kbps
Movie name : Leonid.Kuravlev.Afonya.i.Drugie.2016.HDTVRip.720p.x264-lrn
Encoded date : UTC 2010-02-22 21:41:31
Writing application : mkvmerge v5.9.0 ('On The Loose') built on Dec 9 2012 15:37:01
Writing library : libebml v1.3.0 + libmatroska v1.4.0
Video
ID : 1
Format : AVC
Format/Info : Advanced Video Codec
Format profile : High@L4.1
Format settings, CABAC : Yes
Format settings, ReFrames : 8 frames
Codec ID : V_MPEG4/ISO/AVC
Duration : 49mn 36s
Bit rate : 4 000 Kbps
Width : 1 280 pixels
Height : 720 pixels
Display aspect ratio : 16:9
Frame rate mode : Constant
Frame rate : 25.000 fps
Color space : YUV
Chroma subsampling : 4:2:0
Bit depth : 8 bits
Scan type : Progressive
Bits/(Pixel*Frame) : 0.174
Stream size : 1.36 GiB (89%)
Writing library : x264 core 148 r2638 7599210
Encoding settings : cabac=1 / ref=8 / deblock=1:-3:-3 / analyse=0x3:0x133 / me=umh / subme=9 / psy=1 / psy_rd=1.00:0.00 / mixed_ref=1 / me_range=32 / chroma_me=1 / trellis=2 / 8x8dct=1 / cqm=0 / deadzone=21,11 / fast_pskip=1 / chroma_qp_offset=-2 / threads=12 / lookahead_threads=2 / sliced_threads=0 / nr=0 / decimate=1 / interlaced=0 / bluray_compat=0 / constrained_intra=0 / bframes=8 / b_pyramid=2 / b_adapt=2 / b_bias=0 / direct=3 / weightb=1 / open_gop=0 / weightp=2 / keyint=250 / keyint_min=25 / scenecut=40 / intra_refresh=0 / rc_lookahead=50 / rc=2pass / mbtree=1 / bitrate=4000 / ratetol=1.0 / qcomp=0.60 / qpmin=0 / qpmax=69 / qpstep=4 / cplxblur=20.0 / qblur=0.5 / vbv_maxrate=62500 / vbv_bufsize=78125 / nal_hrd=none / filler=0 / ip_ratio=1.40 / aq=1:1.00
Default : Yes
Forced : No
Statistics Tags Issue : mkvmerge v8.5.2 ('Crosses') 32bit 2016-02-22 07:07:47 / mkvmerge v5.9.0 ('On The Loose') built on Dec 9 2012 15:37:01 2010-02-22 21:41:31
FromStats_BitRate : 3999510
FromStats_Duration : 00:49:36.920000000
FromStats_FrameCount : 74423
FromStats_StreamSize : 1488277709
Audio
ID : 2
Format : AC-3
Format/Info : Audio Coding 3
Mode extension : CM (complete main)
Format settings, Endianness : Big
Codec ID : A_AC3
Duration : 49mn 36s
Bit rate mode : Constant
Bit rate : 384 Kbps
Channel(s) : 6 channels
Channel positions : Front: L C R, Side: L R, LFE
Sampling rate : 48.0 KHz
Frame rate : 31.250 fps (1536 spf)
Compression mode : Lossy
Stream size : 136 MiB (9%)
Language : Russian
Default : Yes
Forced : No
raw [info]: 1280x720p 1:1 @ 25/1 fps (cfr)
x264 [info]: using SAR=1/1
x264 [info]: using cpu capabilities: MMX2 SSE2Fast SSSE3 SSE4.2 AVX
x264 [info]: profile High, level 4.1
x264 [info]: frame I:547 Avg QP:13.59 size:120429
x264 [info]: frame P:19689 Avg QP:16.61 size: 42949
x264 [info]: frame B:54187 Avg QP:19.01 size: 10644
x264 [info]: consecutive B-frames: 2.4% 4.1% 5.7% 72.4% 6.7% 7.3% 0.7% 0.7% 0.0%
x264 [info]: mb I I16..4: 4.9% 82.4% 12.7%
x264 [info]: mb P I16..4: 1.2% 11.7% 1.0% P16..4: 41.6% 24.0% 14.0% 0.6% 0.2% skip: 5.7%
x264 [info]: mb B I16..4: 0.1% 1.0% 0.1% B16..8: 35.9% 9.3% 2.1% direct: 8.2% skip:43.4% L0:38.9% L1:44.9% BI:16.2%
x264 [info]: 8x8 transform intra:84.1% inter:62.6%
x264 [info]: direct mvs spatial:99.3% temporal:0.7%
x264 [info]: coded y,uvDC,uvAC intra: 84.1% 82.2% 52.1% inter: 26.1% 30.1% 2.8%
x264 [info]: i16 v,h,dc,p: 30% 14% 7% 49%
x264 [info]: i8 v,h,dc,ddl,ddr,vr,hd,vl,hu: 15% 13% 8% 7% 10% 12% 11% 11% 12%
x264 [info]: i4 v,h,dc,ddl,ddr,vr,hd,vl,hu: 15% 12% 5% 8% 13% 14% 12% 11% 11%
x264 [info]: i8c dc,h,v,p: 40% 24% 21% 15%
x264 [info]: Weighted P-Frames: Y:3.1% UV:1.3%
x264 [info]: ref P L0: 54.0% 11.9% 16.5% 5.1% 4.4% 3.0% 3.0% 1.9% 0.2% 0.0%
x264 [info]: ref B L0: 83.8% 9.5% 3.1% 1.5% 1.0% 0.7% 0.4%
x264 [info]: ref B L1: 96.4% 3.6%
x264 [info]: kb/s:3999.51
encoded 74423 frames, 15.76 fps, 3999.51 kb/s



   Похожие торренты   Торрент   Размер 
В этой теме нет новых непрочитанных сообщений. Леонид Куравлев. Афоня и Другие (2016) HDTVRip-AVC

85 | 8

669.15 МБ

В этой теме нет новых непрочитанных сообщений. Леонид Куравлев. Афоня и другие (2016) HDTVRip от GeneralFilm

351 | 19

710.23 МБ

В этой теме нет новых непрочитанных сообщений. Леонид Куравлев. Афоня и другие (2016) HDTV 1080i от GeneralFilm

29 | 1

2.65 ГБ

В этой теме нет новых непрочитанных сообщений. Леонид Куравлев. На мне узоров нету! (2013) SATRip

84 | 13

584.63 МБ

В этой теме нет новых непрочитанных сообщений. Фундаментальная разведка. Леонид Квасников (2016) HDTVRip 720p от Generalfilm

71 | 0

635.97 МБ

В этой теме нет новых непрочитанных сообщений. Фундаментальная разведка. Леонид Квасников (2016) HDTVRip от Generalfilm

136 | 3

629.78 МБ

В этой теме нет новых непрочитанных сообщений. Леонид Якубович. Фигура Высшего Пилотажа (2015) HDTVRip 720p

88 | 5

1.44 ГБ




Вы не можете начинать темы
Вы не можете отвечать на сообщения
Вы не можете редактировать свои сообщения
Вы не можете удалять свои сообщения
Вы не можете добавлять вложения

Перейти:  
Для Мосгорсуда, Роскомнадзора и рекламодателей: mosgorsud-torrent[собачка]yandex.ru
 Вход
ppkBB3cker v.2 © 2008-2014 @ PPK
[ Time : 0.018s | 15 Queries | GZIP : On ]

Торрент трекер RUTOR.IN, Не можете зайти на rutor.org? Какой новый адрес рутор? Какое зеркало рутор? Не работает rutor.org и зеркала? Тогда наш торрент специально для вас. Rutor.in неофициальное зеркало rutor. В случае если у Вас заблокирован rutor или вдруг Вы не можете на него зайти, то Вы без труда сможете скачать бесплатно и без рекламы последние новинки кино, игр, сериалов и прочего у нас, на Rutor.in. Не нужно использовать прокси, чтобы зайти на рутор, достаточно воспользоваться нашим ресурсом. Все новые фильмы, игры, сериалы, книги и музыка за 2013 и 2014 годы через торрент бесплатно. Скачивайте фильмы в хорошем качестве, игры для пк, xbox, playstation без регистрации. У нас вы найдете новые Зарубежные сериалы и Русские сериалы 2013, 2014, 2015 годов. Оставайтесь с нами, качайте любимые фильмы, игры, сериалы, книги и музыку.