img image001 image001 image001 image001 image001 image001 image001 image001 image001 image001 image001 image001 image001 image001 image001

Planets Sun Sun Sun
Статистика раздачи
Автор: Nickolas3434 | Размер: 2.18 ГБ | Добавлен: 27 фев 2016, 12:39
Раздают: 167    Качают: 14
Скачать торрент
Скачать торрент
Описание торрента

СообщениеДобавлено: 27 фев 2016, 12:39 

Янковский


#77
Дата/Год выпуска: 2015
Страна: Россия | Первый Канала HD | Студия 217
Жанр: Документальный
Продолжительность: 1:11:16
Режиссер: Аркадий Коган

Описание: Этот фильм не об Олеге Янковском в привычном понимании: не биография великого актера, не обзор ролей. И не острые факты из его личной жизни. Хотя это все в фильме есть: драматичная судьба, неизвестные страницы биографии. Как любой большой актер, он обладал тайной — недоговаривал и в кино, и в жизни. Но главным его даром было даже не лицедейство. Янковский талантливо влюблял в себя людей. На него хотелось смотреть снова и снова: оттого его любили и любят до сих пор.

Автор рипа: lrn
Автор записи: Alexin29
Сэмпл: sendfile

Тип релиза: HDTVRip 720p
Контейнер: MKV
Видео: 1280x720 (16:9), 25,000 fps, H264, ~4000 kbps avg, ~0.174 bit/pixel
Аудио: 48 kHz, AC3 Dolby Digital, 3/2 (L,C,R,l,r) + LFE ch, ~384.00 kbps avg

General
Unique ID : 200067995209589003162059995678375473766 (0x9683B1BCE89C09C1A493CACB87C8F266)
Complete name : E:uTorrent.TempTempYankovskiy.2015.HDTVRip.720p.x264-lrn.mkv
Format : Matroska
Format version : Version 4 / Version 2
File size : 2.18 GiB
Duration : 1h 11mn
Overall bit rate : 4 385 Kbps
Movie name : Yankovskiy.2015.HDTVRip.720p.x264-lrn
Encoded date : UTC 2010-02-22 21:41:31
Writing application : mkvmerge v5.9.0 ('On The Loose') built on Dec 9 2012 15:37:01
Writing library : libebml v1.3.0 + libmatroska v1.4.0
Video
ID : 1
Format : AVC
Format/Info : Advanced Video Codec
Format profile : High@L4.1
Format settings, CABAC : Yes
Format settings, ReFrames : 8 frames
Codec ID : V_MPEG4/ISO/AVC
Duration : 1h 11mn
Bit rate : 4 000 Kbps
Width : 1 280 pixels
Height : 720 pixels
Display aspect ratio : 16:9
Frame rate mode : Constant
Frame rate : 25.000 fps
Color space : YUV
Chroma subsampling : 4:2:0
Bit depth : 8 bits
Scan type : Progressive
Bits/(Pixel*Frame) : 0.174
Stream size : 1.95 GiB (89%)
Writing library : x264 core 148 r2638 7599210
Encoding settings : cabac=1 / ref=8 / deblock=1:-3:-3 / analyse=0x3:0x133 / me=umh / subme=9 / psy=1 / psy_rd=1.00:0.00 / mixed_ref=1 / me_range=32 / chroma_me=1 / trellis=2 / 8x8dct=1 / cqm=0 / deadzone=21,11 / fast_pskip=1 / chroma_qp_offset=-2 / threads=12 / lookahead_threads=2 / sliced_threads=0 / nr=0 / decimate=1 / interlaced=0 / bluray_compat=0 / constrained_intra=0 / bframes=8 / b_pyramid=2 / b_adapt=2 / b_bias=0 / direct=3 / weightb=1 / open_gop=0 / weightp=2 / keyint=250 / keyint_min=25 / scenecut=40 / intra_refresh=0 / rc_lookahead=50 / rc=2pass / mbtree=1 / bitrate=4000 / ratetol=1.0 / qcomp=0.60 / qpmin=0 / qpmax=69 / qpstep=4 / cplxblur=20.0 / qblur=0.5 / vbv_maxrate=62500 / vbv_bufsize=78125 / nal_hrd=none / filler=0 / ip_ratio=1.40 / aq=1:1.00
Default : Yes
Forced : No
Statistics Tags Issue : mkvmerge v8.5.2 ('Crosses') 32bit 2016-02-26 09:20:58 / mkvmerge v5.9.0 ('On The Loose') built on Dec 9 2012 15:37:01 2010-02-22 21:41:31
FromStats_BitRate : 3999539
FromStats_Duration : 01:11:16.680000000
FromStats_FrameCount : 106917
FromStats_StreamSize : 2138093905
Audio
ID : 2
Format : AC-3
Format/Info : Audio Coding 3
Mode extension : CM (complete main)
Format settings, Endianness : Big
Codec ID : A_AC3
Duration : 1h 11mn
Bit rate mode : Constant
Bit rate : 384 Kbps
Channel(s) : 6 channels
Channel positions : Front: L C R, Side: L R, LFE
Sampling rate : 48.0 KHz
Frame rate : 31.250 fps (1536 spf)
Compression mode : Lossy
Stream size : 196 MiB (9%)
Language : Russian
Default : Yes
Forced : No
raw [info]: 1280x720p 1:1 @ 25/1 fps (cfr)
x264 [info]: using SAR=1/1
x264 [info]: using cpu capabilities: MMX2 SSE2Fast SSSE3 SSE4.2 AVX
x264 [info]: profile High, level 4.1
x264 [info]: frame I:659 Avg QP:13.29 size:114433
x264 [info]: frame P:26977 Avg QP:16.18 size: 41859
x264 [info]: frame B:79281 Avg QP:18.45 size: 11774
x264 [info]: consecutive B-frames: 1.9% 4.1% 5.2% 63.8% 7.4% 12.5% 1.4% 3.0% 0.6%
x264 [info]: mb I I16..4: 6.7% 78.6% 14.7%
x264 [info]: mb P I16..4: 1.9% 12.2% 1.1% P16..4: 40.6% 23.7% 13.3% 0.6% 0.2% skip: 6.5%
x264 [info]: mb B I16..4: 0.2% 1.2% 0.1% B16..8: 37.0% 10.2% 2.1% direct: 9.2% skip:39.9% L0:41.4% L1:45.3% BI:13.2%
x264 [info]: 8x8 transform intra:80.0% inter:61.3%
x264 [info]: direct mvs spatial:97.8% temporal:2.2%
x264 [info]: coded y,uvDC,uvAC intra: 79.7% 74.4% 44.9% inter: 27.7% 28.2% 2.6%
x264 [info]: i16 v,h,dc,p: 45% 11% 6% 38%
x264 [info]: i8 v,h,dc,ddl,ddr,vr,hd,vl,hu: 13% 11% 8% 8% 11% 12% 12% 12% 13%
x264 [info]: i4 v,h,dc,ddl,ddr,vr,hd,vl,hu: 13% 9% 5% 9% 14% 14% 13% 11% 13%
x264 [info]: i8c dc,h,v,p: 47% 21% 19% 13%
x264 [info]: Weighted P-Frames: Y:5.3% UV:1.9%
x264 [info]: ref P L0: 53.7% 10.5% 16.3% 5.8% 4.6% 3.5% 3.1% 2.2% 0.2% 0.0%
x264 [info]: ref B L0: 81.9% 9.9% 3.7% 1.8% 1.4% 0.9% 0.5%
x264 [info]: ref B L1: 95.9% 4.1%
x264 [info]: kb/s:3999.54
encoded 106917 frames, 15.00 fps, 3999.54 kb/s



   Похожие торренты   Торрент   Размер 
В этой теме нет новых непрочитанных сообщений. Янковский (2015) HDTVRip-AVC

164 | 21

961.24 МБ

В этой теме нет новых непрочитанных сообщений. В наше время. Тот самый Янковский [14.03] (2014) HDTVRip 720p от waPBX

31 | 20

463.85 МБ

В этой теме нет новых непрочитанных сообщений. Дмитрий Янковский - S.T.A.L.K.E.R. Эпицентр удачи (2010) MP3

14 | 2

471.26 МБ

В этой теме нет новых непрочитанных сообщений. Янковский Дмитрий - Большая Охота (2006) (2011) MP3

91 | 4

749.84 МБ

В этой теме нет новых непрочитанных сообщений. Валерий Юрьевич Янковский - Нэнуни-четырехглазый (1979) FB2

54 | 18

610.35 КБ

В этой теме нет новых непрочитанных сообщений. Янковский Дмитрий - !3 Третья раса (2005) (2011) MP3

0 | 18

797.85 МБ

В этой теме нет новых непрочитанных сообщений. Янковский Дмитрий - Мир вечного ливня (2004) (2011) MP3

2 | 5

1.08 ГБ




Вы не можете начинать темы
Вы не можете отвечать на сообщения
Вы не можете редактировать свои сообщения
Вы не можете удалять свои сообщения
Вы не можете добавлять вложения

Перейти:  
Для Мосгорсуда, Роскомнадзора и рекламодателей: mosgorsud-torrent[собачка]yandex.ru
Настройки
ppkBB3cker v.2 © 2008-2014 @ PPK
[ Time : 0.014s | 16 Queries | GZIP : Off ]
CGP [Extreme] output time : 0.00068s | 0 Queries | GZIP : Off

Торрент трекер RUTOR.IN, Не можете зайти на rutor.org? Какой новый адрес рутор? Какое зеркало рутор? Не работает rutor.org и зеркала? Тогда наш торрент специально для вас. Rutor.in неофициальное зеркало rutor. В случае если у Вас заблокирован rutor или вдруг Вы не можете на него зайти, то Вы без труда сможете скачать бесплатно и без рекламы последние новинки кино, игр, сериалов и прочего у нас, на Rutor.in. Не нужно использовать прокси, чтобы зайти на рутор, достаточно воспользоваться нашим ресурсом. Все новые фильмы, игры, сериалы, книги и музыка за 2013 и 2014 годы через торрент бесплатно. Скачивайте фильмы в хорошем качестве, игры для пк, xbox, playstation без регистрации. У нас вы найдете новые Зарубежные сериалы и Русские сериалы 2013, 2014, 2015 годов. Оставайтесь с нами, качайте любимые фильмы, игры, сериалы, книги и музыку.