img image001 image001 image001 image001 image001 image001 image001 image001 image001 image001 image001 image001 image001 image001 image001

Planets Sun Sun Sun
Статистика раздачи
Автор: Nickolas3434 | Размер: 2.77 ГБ | Добавлен: 04 мар 2016
Раздают: 29    Качают: 0
Скачать торрент
Скачать торрент
Описание торрента

СообщениеДобавлено: 04 мар 2016 

88-я Церемония Вручения Премии «Оскар» / The 88th Annual Academy Awards


#77
Дата/Год выпуска: 28.02.2016
Страна: США | ABC | Первый Канал HD
Жанр: Церемония Награжден74
Продолжительность: 1:30:17
Озвучка: Одноголосый Закадровый (Григорий Либергал)
Режиссер: Хэмиш Гамильтон

Описание: 88-й церемонии вручения премии "Оскар", которая традиционно проходит в театре "Долби" в Голливуде. Главная интрига традиционно была связана с номинацией за лучший фильм, но среди киноманов на первом месте стоял другой вопрос: удостоится ли статуэтки актер Леонардо Ди Каприо.

Автор рипа: lrn
Автор записи: Doc66
Сэмпл: sendfile

Тип релиза: HDTVRip 720p
Контейнер: MKV
Видео: 1280x720 (16:9), 25,000 fps, H264, ~4000 kbps avg, ~0.174 bit/pixel
Аудио: 48 kHz, AC3 Dolby Digital, 3/2 (L,C,R,l,r) + LFE ch, ~384.00 kbps avg

Лучший фильм: "В центре внимания"
Лучший актер: Леонардо ДиКаприо
Лучшая актриса: Бри Ларсон ("Комната")
Лучший режиссер: Алехандро Гонсалес Иньярриту ("Выживший")
Лучшая актриса второго плана: Алисия Викандер
Лучший актер второго плана: Марк Райленс ("Шпионский мост")
Лучшая песня к фильму: Сэм Смит и Джимми Нэйпс за песню Writing’s on the Wall к фильму "007: Спектр"
Лучший композитор: Эннио Морриконе за музыку к фильму "Омерзительная восьмерка"
Лучший фильм на иностранном языке: "Сын Саула" (Венгрия)
Лучший игровой короткометражный фильм: "Заика"
Лучший полнометражный документальный фильм: "Эми" о британской певице Эми Уайнхаус, которая умерла в 2011 году
Лучший короткометражный документальный фильм: "Девушка в реке. Цена прощения"
Лучший полнометражный анимационный фильм: "Головоломка"
Лучший короткометражный анимационный фильм: "Медвежья история"
Лучшие визуальные эффекты: Ex Machina (Из машины)
Лучшее сведение звука: "Безумный Макс: Дорога ярости"
Лучший звуковой монтаж: "Безумный Макс: Дорога ярости"
Лучший монтаж: "Безумный Макс: Дорога ярости"
Лучший оператор: Эммануэль Любецки ("Выживший")
Лучший грим и прически: "Безумный Макс: Дорога ярости"
Лучшая работа художника: "Безумный Макс: Дорога ярости"
Лучший дизайн костюмов: "Безумный Макс: Дорога ярости"
Лучший адаптированный сценарий: "Игра на понижение"
Лучший оригинальный сценарий: "В центре внимания"
General
Unique ID : 197488855418011377348297136103662623275 (0x9492F854190AF82EB63AA5B725511A2B)
Complete name : E:uTorrent.TempDoneThe.88th.Annual.Academy.Awards.2016.HDTVRip.720p.x264-RUS-lrn.mkv
Format : Matroska
Format version : Version 4 / Version 2
File size : 2.77 GiB
Duration : 1h 30mn
Overall bit rate : 4 386 Kbps
Movie name : The.88th.Annual.Academy.Awards.2016.HDTVRip.720p.x264-RUS-lrn
Encoded date : UTC 2010-02-22 21:41:31
Writing application : mkvmerge v5.9.0 ('On The Loose') built on Dec 9 2012 15:37:01
Writing library : libebml v1.3.0 + libmatroska v1.4.0
Video
ID : 1
Format : AVC
Format/Info : Advanced Video Codec
Format profile : High@L4.1
Format settings, CABAC : Yes
Format settings, ReFrames : 8 frames
Codec ID : V_MPEG4/ISO/AVC
Duration : 1h 30mn
Bit rate : 4 000 Kbps
Width : 1 280 pixels
Height : 720 pixels
Display aspect ratio : 16:9
Frame rate mode : Constant
Frame rate : 25.000 fps
Color space : YUV
Chroma subsampling : 4:2:0
Bit depth : 8 bits
Scan type : Progressive
Bits/(Pixel*Frame) : 0.174
Stream size : 2.47 GiB (89%)
Writing library : x264 core 148 r2638 7599210
Encoding settings : cabac=1 / ref=8 / deblock=1:-3:-3 / analyse=0x3:0x133 / me=umh / subme=9 / psy=1 / psy_rd=1.00:0.00 / mixed_ref=1 / me_range=32 / chroma_me=1 / trellis=2 / 8x8dct=1 / cqm=0 / deadzone=21,11 / fast_pskip=1 / chroma_qp_offset=-2 / threads=12 / lookahead_threads=2 / sliced_threads=0 / nr=0 / decimate=1 / interlaced=0 / bluray_compat=0 / constrained_intra=0 / bframes=8 / b_pyramid=2 / b_adapt=2 / b_bias=0 / direct=3 / weightb=1 / open_gop=0 / weightp=2 / keyint=250 / keyint_min=25 / scenecut=40 / intra_refresh=0 / rc_lookahead=50 / rc=2pass / mbtree=1 / bitrate=4000 / ratetol=1.0 / qcomp=0.60 / qpmin=0 / qpmax=69 / qpstep=4 / cplxblur=20.0 / qblur=0.5 / vbv_maxrate=62500 / vbv_bufsize=78125 / nal_hrd=none / filler=0 / ip_ratio=1.40 / aq=1:1.00
Default : Yes
Forced : No
Statistics Tags Issue : mkvmerge v8.5.2 ('Crosses') 32bit 2016-03-02 02:05:34 / mkvmerge v5.9.0 ('On The Loose') built on Dec 9 2012 15:37:01 2010-02-22 21:41:31
FromStats_BitRate : 4000234
FromStats_Duration : 01:30:17.680000000
FromStats_FrameCount : 135442
FromStats_StreamSize : 2708998684
Audio
ID : 2
Format : AC-3
Format/Info : Audio Coding 3
Mode extension : CM (complete main)
Format settings, Endianness : Big
Codec ID : A_AC3
Duration : 1h 30mn
Bit rate mode : Constant
Bit rate : 384 Kbps
Channel(s) : 6 channels
Channel positions : Front: L C R, Side: L R, LFE
Sampling rate : 48.0 KHz
Frame rate : 31.250 fps (1536 spf)
Compression mode : Lossy
Stream size : 248 MiB (9%)
Language : Russian
Default : Yes
Forced : No



   Похожие торренты   Торрент   Размер 
В этой теме нет новых непрочитанных сообщений. 88-я Церемония Вручения Премии «Оскар» 2016 / The 88th Annual Academy Awards [28.02] (2016) HDTVRip-AVC | Первый Канал

675 | 34

1.19 ГБ

В этой теме нет новых непрочитанных сообщений. 87-я Церемония Вручения Премии «Оскар» 2015 / The 87th Annual Academy Awards [22.02] (2015) HDTVRip 720p | Первый Канал

793 | 19

2.76 ГБ

В этой теме нет новых непрочитанных сообщений. 87-я Церемония Вручения Премии «Оскар» 2015 / The 87th Annual Academy Awards [22.02] (2015) HDTVRip | Первый Канал

200 | 7

1.03 ГБ

В этой теме нет новых непрочитанных сообщений. 84 церемония вручения премии «Оскар» / The 84th Annual Academy Awards (2012) HDTV 720p

0 | 2

2.91 ГБ

В этой теме нет новых непрочитанных сообщений. 86-я церемония вручения премии «Оскар» 2014 / The 86th Annual Academy Awards HDTV 720p | Матвеев

23 | 17

5.74 ГБ

В этой теме нет новых непрочитанных сообщений. 87-я Церемония Вручения Премии «Оскар» 2015 / The 87th Annual Academy Awards [22.02] (2015) HDTVRip 720p

130 | 27

4.6 ГБ

В этой теме нет новых непрочитанных сообщений. 86-я церемония вручения премии «Оскар» 2014 / The 86th Annual Academy Awards. «Красная дорожка» + «Оскар» (2014) HDTV 720p

408 | 246

5 ГБ




Вы не можете начинать темы
Вы не можете отвечать на сообщения
Вы не можете редактировать свои сообщения
Вы не можете удалять свои сообщения
Вы не можете добавлять вложения

Перейти:  
Для Мосгорсуда, Роскомнадзора и рекламодателей: mosgorsud-torrent[собачка]yandex.ru
 Вход
ppkBB3cker v.2 © 2008-2014 @ PPK
[ Time : 0.031s | 15 Queries | GZIP : Off ]

Торрент трекер RUTOR.IN, Не можете зайти на rutor.org? Какой новый адрес рутор? Какое зеркало рутор? Не работает rutor.org и зеркала? Тогда наш торрент специально для вас. Rutor.in неофициальное зеркало rutor. В случае если у Вас заблокирован rutor или вдруг Вы не можете на него зайти, то Вы без труда сможете скачать бесплатно и без рекламы последние новинки кино, игр, сериалов и прочего у нас, на Rutor.in. Не нужно использовать прокси, чтобы зайти на рутор, достаточно воспользоваться нашим ресурсом. Все новые фильмы, игры, сериалы, книги и музыка за 2013 и 2014 годы через торрент бесплатно. Скачивайте фильмы в хорошем качестве, игры для пк, xbox, playstation без регистрации. У нас вы найдете новые Зарубежные сериалы и Русские сериалы 2013, 2014, 2015 годов. Оставайтесь с нами, качайте любимые фильмы, игры, сериалы, книги и музыку.