img image001 image001 image001 image001 image001 image001 image001 image001 image001 image001 image001 image001 image001 image001 image001

Planets Sun Sun Sun
Статистика раздачи
Автор: PriZraK | Размер: 1.13 ГБ | Добавлен: 13 мар 2016
Раздают: 1    Качают: 0
Скачать торрент
Скачать торрент
Описание торрента

СообщениеДобавлено: 13 мар 2016 

Большой Вавилон / Bolshoi Babylon


#77
Дата/Год выпуска: 2015
Страна: Великобритания | Red Velvet Films | Red Box Films
Жанр: Документальный
Продолжительность: 1:25:33
Перевод: Профессиональный (многоголосый закадровый) | "Первый Канал"
Режиссер: Ник Рид / Nick Read, Марк Франкетти / Mark Franchetti

Описание: Марк Франкетти – московский корреспондент лондонской газеты "Sunday Times" решил разобраться со всеми сплетнями и интригами и снять подробный фильм о Большом. После долгих и утомительных переговоров съемочная группа Франкетти получила доступ к внутренней кухне театра. Генеральный директор Владимир Урин разрешил документалистам в течение сезона снимать все, что им нужно, и всех, кого хотят, причем совершенно бесплатно и бесконтрольно.


Автор рипа: lrn
Автор записи: Alexin29
Сэмпл: sendfile

Тип релиза: HDTVRip-AVC
Контейнер: MKV
Видео: 1024x560 (1.85:1), 25,000 fps, H264, ~1500 kbps avg, ~0.105 bit/pixel
Аудио: 48 kHz, AC3 Dolby Digital, 3/2 (L,C,R,l,r) + LFE ch, ~384.00 kbps avg

General
Unique ID : 222918074877307697275980945312619563322 (0xA7B475A567C912119D1FA459D3D2093A)
Complete name : E:uTorrent.TempTempBolshoi.Babylon.2015.HDTVRip-AVC.x264-RUS-lrn.mkv
Format : Matroska
Format version : Version 4 / Version 2
File size : 1.13 GiB
Duration : 1h 25mn
Overall bit rate : 1 885 Kbps
Movie name : Bolshoi.Babylon.2015.HDTVRip-AVC.x264-RUS-lrn
Encoded date : UTC 2010-02-22 21:41:31
Writing application : mkvmerge v5.9.0 ('On The Loose') built on Dec 9 2012 15:37:01
Writing library : libebml v1.3.0 + libmatroska v1.4.0
Video
ID : 1
Format : AVC
Format/Info : Advanced Video Codec
Format profile : High@L4.1
Format settings, CABAC : Yes
Format settings, ReFrames : 8 frames
Codec ID : V_MPEG4/ISO/AVC
Duration : 1h 25mn
Bit rate : 1 500 Kbps
Width : 1 024 pixels
Height : 576 pixels
Display aspect ratio : 16:9
Frame rate mode : Constant
Frame rate : 25.000 fps
Color space : YUV
Chroma subsampling : 4:2:0
Bit depth : 8 bits
Scan type : Progressive
Bits/(Pixel*Frame) : 0.102
Stream size : 896 MiB (78%)
Writing library : x264 core 148 r2638 7599210
Encoding settings : cabac=1 / ref=8 / deblock=1:-3:-3 / analyse=0x3:0x133 / me=umh / subme=9 / psy=1 / psy_rd=1.00:0.00 / mixed_ref=1 / me_range=32 / chroma_me=1 / trellis=2 / 8x8dct=1 / cqm=0 / deadzone=21,11 / fast_pskip=1 / chroma_qp_offset=-2 / threads=12 / lookahead_threads=2 / sliced_threads=0 / nr=0 / decimate=1 / interlaced=0 / bluray_compat=0 / constrained_intra=0 / bframes=8 / b_pyramid=2 / b_adapt=2 / b_bias=0 / direct=3 / weightb=1 / open_gop=0 / weightp=2 / keyint=250 / keyint_min=25 / scenecut=40 / intra_refresh=0 / rc_lookahead=50 / rc=2pass / mbtree=1 / bitrate=1500 / ratetol=1.0 / qcomp=0.60 / qpmin=0 / qpmax=69 / qpstep=4 / cplxblur=20.0 / qblur=0.5 / vbv_maxrate=62500 / vbv_bufsize=78125 / nal_hrd=none / filler=0 / ip_ratio=1.40 / aq=1:1.00
Default : Yes
Forced : No
Statistics Tags Issue : mkvmerge v8.5.2 ('Crosses') 32bit 2016-03-13 08:12:51 / mkvmerge v5.9.0 ('On The Loose') built on Dec 9 2012 15:37:01 2010-02-22 21:41:31
FromStats_BitRate : 1499725
FromStats_Duration : 01:25:33.320000000
FromStats_FrameCount : 128333
FromStats_StreamSize : 962321415
Audio
ID : 2
Format : AC-3
Format/Info : Audio Coding 3
Mode extension : CM (complete main)
Format settings, Endianness : Big
Codec ID : A_AC3
Duration : 1h 25mn
Bit rate mode : Constant
Bit rate : 384 Kbps
Channel(s) : 6 channels
Channel positions : Front: L C R, Side: L R, LFE
Sampling rate : 48.0 KHz
Frame rate : 31.250 fps (1536 spf)
Compression mode : Lossy
Stream size : 235 MiB (20%)
Language : Russian
Default : Yes
Forced : No
raw [info]: 1024x576p 1:1 @ 25/1 fps (cfr)
x264 [info]: using SAR=1/1
x264 [info]: using cpu capabilities: MMX2 SSE2Fast SSSE3 SSE4.2 AVX
x264 [info]: profile High, level 4.1
x264 [info]: frame I:747 Avg QP:15.69 size: 52680
x264 [info]: frame P:33746 Avg QP:18.36 size: 15944
x264 [info]: frame B:93840 Avg QP:20.96 size: 4102
x264 [info]: consecutive B-frames: 1.8% 3.5% 7.1% 74.3% 6.3% 5.4% 0.7% 0.6% 0.3%
x264 [info]: mb I I16..4: 12.7% 70.5% 16.8%
x264 [info]: mb P I16..4: 3.4% 8.7% 1.0% P16..4: 46.2% 14.3% 11.6% 0.3% 0.1% skip:14.3%
x264 [info]: mb B I16..4: 0.2% 0.7% 0.1% B16..8: 35.6% 5.7% 1.2% direct: 4.0% skip:52.5% L0:40.5% L1:48.9% BI:10.6%
x264 [info]: 8x8 transform intra:67.2% inter:68.0%
x264 [info]: direct mvs spatial:95.9% temporal:4.1%
x264 [info]: coded y,uvDC,uvAC intra: 61.9% 71.5% 34.6% inter: 14.3% 16.8% 1.1%
x264 [info]: i16 v,h,dc,p: 40% 14% 7% 39%
x264 [info]: i8 v,h,dc,ddl,ddr,vr,hd,vl,hu: 15% 10% 8% 8% 11% 13% 12% 11% 11%
x264 [info]: i4 v,h,dc,ddl,ddr,vr,hd,vl,hu: 16% 11% 5% 8% 13% 14% 12% 10% 11%
x264 [info]: i8c dc,h,v,p: 32% 26% 23% 18%
x264 [info]: Weighted P-Frames: Y:4.5% UV:2.5%
x264 [info]: ref P L0: 52.4% 9.4% 17.3% 6.0% 4.9% 3.9% 3.5% 2.4% 0.3% 0.0%
x264 [info]: ref B L0: 81.7% 10.0% 3.8% 1.8% 1.3% 0.9% 0.5%
x264 [info]: ref B L1: 96.0% 4.0%
x264 [info]: kb/s:1499.72
encoded 128333 frames, 25.68 fps, 1499.72 kb/s



   Похожие торренты   Торрент   Размер 
В этой теме нет новых непрочитанных сообщений. Большой Вавилон / Bolshoi Babylon (2015) HDTVRip 720p | P

8 | 3

2.62 ГБ

В этой теме нет новых непрочитанных сообщений. Лондон - Современный Вавилон / London - The Modern Babylon (2012) HDTVRip 720p | Первый Канал

54 | 40

3.9 ГБ

В этой теме нет новых непрочитанных сообщений. Вавилон Н.Э. / Babylon A.D. (2008) HDRip

56 | 4

1.46 ГБ

В этой теме нет новых непрочитанных сообщений. Вавилон Н.Э. / Babylon A.D. (2008) BDRip-AVC | D

82 | 13

744.7 МБ

В этой теме нет новых непрочитанных сообщений. Вавилон Н.Э. / Babylon.A.D. (2008) BDRip от Bumblebee

0 | 3

1.44 ГБ

В этой теме нет новых непрочитанных сообщений. Вавилон Н.Э. / Babylon.A.D.(2008) DVDRip от Bumblebee

30 | 4

1.36 ГБ

В этой теме нет новых непрочитанных сообщений. Вавилон Н.Э. / Babylon A.D. (2008) BDRip 720p | D | P

145 | 12

5.47 ГБ




Вы не можете начинать темы
Вы не можете отвечать на сообщения
Вы не можете редактировать свои сообщения
Вы не можете удалять свои сообщения
Вы не можете добавлять вложения

Перейти:  
Для Мосгорсуда, Роскомнадзора и рекламодателей: mosgorsud-torrent[собачка]yandex.ru
 Вход
ppkBB3cker v.2 © 2008-2014 @ PPK
[ Time : 0.964s | 15 Queries | GZIP : Off ]

Торрент трекер RUTOR.IN, Не можете зайти на rutor.org? Какой новый адрес рутор? Какое зеркало рутор? Не работает rutor.org и зеркала? Тогда наш торрент специально для вас. Rutor.in неофициальное зеркало rutor. В случае если у Вас заблокирован rutor или вдруг Вы не можете на него зайти, то Вы без труда сможете скачать бесплатно и без рекламы последние новинки кино, игр, сериалов и прочего у нас, на Rutor.in. Не нужно использовать прокси, чтобы зайти на рутор, достаточно воспользоваться нашим ресурсом. Все новые фильмы, игры, сериалы, книги и музыка за 2013 и 2014 годы через торрент бесплатно. Скачивайте фильмы в хорошем качестве, игры для пк, xbox, playstation без регистрации. У нас вы найдете новые Зарубежные сериалы и Русские сериалы 2013, 2014, 2015 годов. Оставайтесь с нами, качайте любимые фильмы, игры, сериалы, книги и музыку.