img image001 image001 image001 image001 image001 image001 image001 image001 image001 image001 image001 image001 image001 image001 image001

Planets Sun Sun Sun
Статистика раздачи
Автор: Nickolas3434 | Размер: 823.96 МБ | Добавлен: 22 мар 2016
Раздают: 531    Качают: 17
Скачать торрент
Скачать торрент
Описание торрента

СообщениеДобавлено: 22 мар 2016 


Информация о фильме
Название: Потомки Ариев
Дата эфира: 2016-03-18 (телеканал «РЕН ТВ»)
Жанр: документальный, познавательный, история, цивилизации
Описание:
Сенсация, которая поразила научный мир. Колыбель европейской цивилизации находилась на русской равнине, а не в Греции и Месопотамии. Коренные жители Сибири не имеют ничего общего с азиатскими кочевниками. Наречия жителей северных деревень очень схожи с санскритом. Кто жил на территории России 45 тысяч лет назад? Где зародилась первая цивилизация на Земле? Откуда пришли таинственные арии? И что общего между ариями и древними славянами? Открытия историков и археологов невероятнее, чем самые смелые прогнозы фантастов.
Страна: Россия
Производство: Компания «Юнайтед Медиа», проект «Достояние планеты» (по заказу «РЕН ТВ»), 2016
Продолжительность: 01:35:00
Перевод: не требуется
Файл
Качество: PDTVRip.x264 (SDTV), MPEG-4 (MP4) (Base Media) [isom]
Кодек: H.264 ([email protected]) [avc1], CABAC / 5 ReFrames, Slow Preset (-crf 19)
Видео: YUV420p, 720x400 (16:9), 1121 kb/s, 25.000 fps, x264 core 148 r236 a01e339
Звук: AAC (LC) [mp4a], 44.1 kHz, Mono, VBR 84.6 kb/s (-q 0.50), -23.0 LUFS (EBU R128)
General
Complete name : Potomki.Ariyev.2016.RENTV.PDTVRip.x264-SDARMY.mp4
Format : MPEG-4
Format profile : Base Media
Codec ID : isom
File size : 824 MiB
Duration : 1h 35mn
Overall bit rate : 1 212 Kbps
Movie name : Потомки Ариев (ТК «РЕН ТВ», 18 марта 2016)
Encoded date : UTC 2016-03-20 01:10:38
Tagged date : UTC 2016-03-20 01:10:38
Writing application : Lavf57.25.100
Video
ID : 1
Format : AVC
Format/Info : Advanced Video Codec
Format profile : [email protected]
Format settings, CABAC : Yes
Format settings, ReFrames : 5 frames
Codec ID : avc1
Codec ID/Info : Advanced Video Coding
Duration : 1h 35mn
Bit rate : 1 121 Kbps
Width : 720 pixels
Height : 400 pixels
Display aspect ratio : 16:9
Frame rate mode : Constant
Frame rate : 25.000 fps
Color space : YUV
Chroma subsampling : 4:2:0
Bit depth : 8 bits
Scan type : Progressive
Bits/(Pixel*Frame) : 0.156
Stream size : 762 MiB (92%)
Writing library : x264 core 148 r236 a01e339
Encoding settings : cabac=1 / ref=5 / deblock=1:0:0 / analyse=0x3:0x113 / me=umh / subme=8 / psy=1 / psy_rd=1.00:0.00 / mixed_ref=1 / me_range=16 / chroma_me=1 / trellis=1 / 8x8dct=1 / cqm=0 / deadzone=21,11 / fast_pskip=1 / chroma_qp_offset=-2 / threads=3 / lookahead_threads=1 / sliced_threads=0 / nr=0 / decimate=1 / interlaced=0 / bluray_compat=0 / constrained_intra=0 / bframes=3 / b_pyramid=2 / b_adapt=2 / b_bias=0 / direct=3 / weightb=1 / open_gop=0 / weightp=2 / keyint=250 / keyint_min=25 / scenecut=40 / intra_refresh=0 / rc_lookahead=50 / rc=crf / mbtree=1 / crf=19.0 / qcomp=0.60 / qpmin=0 / qpmax=69 / qpstep=4 / ip_ratio=1.40 / aq=1:1.00
Language : Russian
Encoded date : UTC 2016-03-20 01:10:38
Tagged date : UTC 2016-03-20 01:10:38
Audio
ID : 2
Format : AAC
Format/Info : Advanced Audio Codec
Format profile : LC
Codec ID : 40
Duration : 1h 35mn
Bit rate mode : Constant
Bit rate : 84.6 Kbps
Channel(s) : 2 channels
Channel(s)_Original : 1 channel
Channel positions : Front: C
Sampling rate : 44.1 KHz
Compression mode : Lossy
Stream size : 57.5 MiB (7%)
Language : Russian
Encoded date : UTC 2016-03-20 01:10:38
Tagged date : UTC 2016-03-20 01:10:38

Релиз от:



   Похожие торренты   Торрент   Размер 
В этой теме нет новых непрочитанных сообщений. Голод (2016) PDTVRip-AVC от SDARMY

49 | 2

893.3 МБ

В этой теме нет новых непрочитанных сообщений. Незваные гости (2016) PDTVRip-AVC от SDARMY

121 | 12

879.37 МБ

В этой теме нет новых непрочитанных сообщений. Самая полезная программа [12-13] (2016) PDTVRip-AVC от SDARMY

28 | 3

809.13 МБ

В этой теме нет новых непрочитанных сообщений. Природа объявляет войну (2016) PDTVRip-AVC от SDARMY

237 | 28

769.72 МБ

В этой теме нет новых непрочитанных сообщений. Сильные мира сего (2016) PDTVRip-AVC от SDARMY

329 | 6

732.08 МБ

В этой теме нет новых непрочитанных сообщений. Самая полезная программа [12 из ХХ] (2016) PDTVRip-AVC от SDARMY

70 | 6

419.16 МБ

В этой теме нет новых непрочитанных сообщений. Самые ужасные эпидемии (2016) PDTVRip-AVC от SDARMY

36 | 1

824.71 МБ




Вы не можете начинать темы
Вы не можете отвечать на сообщения
Вы не можете редактировать свои сообщения
Вы не можете удалять свои сообщения
Вы не можете добавлять вложения

Перейти:  
Для Мосгорсуда, Роскомнадзора и рекламодателей: mosgorsud-torrent[собачка]yandex.ru
 Вход
ppkBB3cker v.2 © 2008-2014 @ PPK
[ Time : 0.040s | 15 Queries | GZIP : Off ]

Торрент трекер RUTOR.IN, Не можете зайти на rutor.org? Какой новый адрес рутор? Какое зеркало рутор? Не работает rutor.org и зеркала? Тогда наш торрент специально для вас. Rutor.in неофициальное зеркало rutor. В случае если у Вас заблокирован rutor или вдруг Вы не можете на него зайти, то Вы без труда сможете скачать бесплатно и без рекламы последние новинки кино, игр, сериалов и прочего у нас, на Rutor.in. Не нужно использовать прокси, чтобы зайти на рутор, достаточно воспользоваться нашим ресурсом. Все новые фильмы, игры, сериалы, книги и музыка за 2013 и 2014 годы через торрент бесплатно. Скачивайте фильмы в хорошем качестве, игры для пк, xbox, playstation без регистрации. У нас вы найдете новые Зарубежные сериалы и Русские сериалы 2013, 2014, 2015 годов. Оставайтесь с нами, качайте любимые фильмы, игры, сериалы, книги и музыку.
cron