img image001 image001 image001 image001 image001 image001 image001 image001 image001 image001 image001 image001 image001 image001 image001

Planets Sun Sun Sun
Статистика раздачи
Автор: Nickolas3434 | Размер: 593.15 МБ | Добавлен: 21 мар 2016
Раздают: 67    Качают: 2
Скачать торрент
Скачать торрент
Описание торрента

СообщениеДобавлено: 21 мар 2016 

Теория Заговора. Постные Продукты


#77
Год выпуска: 19.03.2016
Страна: Россия
Студия: Первый Канал HD
Жанр: Документальный
Продолжительность: 0:43:59
Автор и руководитель цикла: Андрей Сычев
Режиссеры: Алексей Булейко, Кирилл Ващенко
Ведущий: Михаил Мамаев

Описание: 14 марта начинается Великий пост. А это значит, что 7 недель нельзя есть мясо, птицу, яйца и молоко. Это время простоя у мясников и активных продаж у производителей растительной пищи. Многие из нас во время поста налегают на картошку и макароны, а диетологи бьют тревогу – это небезопасно. Мы расскажем, о каких продуктах нужно вспомнить в пост, а главное - как их выбрать.

Автор рипа: lrn
Автор записи: GeneralFilm
Сэмпл: sendfile

Тип релиза: HDTVRip-AVC
Контейнер: MKV
Видео: 1024x576 (16:9), 25,000 fps, H264, ~1500 kbps avg, ~0.102 bit/pixel
Аудио: 48 kHz, AC3 Dolby Digital, 3/2 (L,C,R,l,r) + LFE ch, ~384.00 kbps avg

General
Unique ID : 239761292845277376268001241543581713547 (0xB46058682C96644799366DE398D9448B)
Complete name : E:uTorrent.TempTempTeoriya.Zagovora.(2016.03.19).HDTVRip-AVC.x264-lrn.mkv
Format : Matroska
Format version : Version 4 / Version 2
File size : 593 MiB
Duration : 43mn 58s
Overall bit rate : 1 886 Kbps
Movie name : Teoriya.Zagovora.(2016.03.19).HDTVRip-AVC.x264-lrn
Encoded date : UTC 2010-02-22 21:41:31
Writing application : mkvmerge v5.9.0 ('On The Loose') built on Dec 9 2012 15:37:01
Writing library : libebml v1.3.0 + libmatroska v1.4.0
Video
ID : 1
Format : AVC
Format/Info : Advanced Video Codec
Format profile : High@L4.1
Format settings, CABAC : Yes
Format settings, ReFrames : 8 frames
Codec ID : V_MPEG4/ISO/AVC
Duration : 43mn 58s
Bit rate : 1 500 Kbps
Width : 1 024 pixels
Height : 576 pixels
Display aspect ratio : 16:9
Frame rate mode : Constant
Frame rate : 25.000 fps
Color space : YUV
Chroma subsampling : 4:2:0
Bit depth : 8 bits
Scan type : Progressive
Bits/(Pixel*Frame) : 0.102
Stream size : 461 MiB (78%)
Writing library : x264 core 148 r2638 7599210
Encoding settings : cabac=1 / ref=8 / deblock=1:-3:-3 / analyse=0x3:0x133 / me=umh / subme=9 / psy=1 / psy_rd=1.00:0.00 / mixed_ref=1 / me_range=32 / chroma_me=1 / trellis=2 / 8x8dct=1 / cqm=0 / deadzone=21,11 / fast_pskip=1 / chroma_qp_offset=-2 / threads=12 / lookahead_threads=2 / sliced_threads=0 / nr=0 / decimate=1 / interlaced=0 / bluray_compat=0 / constrained_intra=0 / bframes=8 / b_pyramid=2 / b_adapt=2 / b_bias=0 / direct=3 / weightb=1 / open_gop=0 / weightp=2 / keyint=250 / keyint_min=25 / scenecut=40 / intra_refresh=0 / rc_lookahead=50 / rc=2pass / mbtree=1 / bitrate=1500 / ratetol=1.0 / qcomp=0.60 / qpmin=0 / qpmax=69 / qpstep=4 / cplxblur=20.0 / qblur=0.5 / vbv_maxrate=62500 / vbv_bufsize=78125 / nal_hrd=none / filler=0 / ip_ratio=1.40 / aq=1:1.00
Default : Yes
Forced : No
Statistics Tags Issue : mkvmerge v8.5.2 ('Crosses') 32bit 2016-03-19 17:11:59 / mkvmerge v5.9.0 ('On The Loose') built on Dec 9 2012 15:37:01 2010-02-22 21:41:31
FromStats_BitRate : 1499795
FromStats_Duration : 00:43:58.800000000
FromStats_FrameCount : 65970
FromStats_StreamSize : 494707431
Audio
ID : 2
Format : AC-3
Format/Info : Audio Coding 3
Mode extension : CM (complete main)
Format settings, Endianness : Big
Codec ID : A_AC3
Duration : 43mn 58s
Bit rate mode : Constant
Bit rate : 384 Kbps
Channel(s) : 6 channels
Channel positions : Front: L C R, Side: L R, LFE
Sampling rate : 48.0 KHz
Frame rate : 31.250 fps (1536 spf)
Compression mode : Lossy
Stream size : 121 MiB (20%)
Language : Russian
Default : Yes
Forced : No
raw [info]: 1024x576p 1:1 @ 25/1 fps (cfr)
x264 [info]: using SAR=1/1
x264 [info]: using cpu capabilities: MMX2 SSE2Fast SSSE3 SSE4.2 AVX
x264 [info]: profile High, level 4.1
x264 [info]: frame I:889 Avg QP:16.85 size: 70795
x264 [info]: frame P:18571 Avg QP:20.13 size: 15607
x264 [info]: frame B:46510 Avg QP:23.20 size: 3052
x264 [info]: consecutive B-frames: 4.4% 6.1% 8.0% 68.0% 6.1% 5.5% 1.0% 0.7% 0.2%
x264 [info]: mb I I16..4: 8.1% 73.7% 18.2%
x264 [info]: mb P I16..4: 2.3% 7.4% 0.8% P16..4: 44.5% 13.6% 12.5% 0.5% 0.2% skip:18.2%
x264 [info]: mb B I16..4: 0.2% 0.7% 0.1% B16..8: 32.7% 4.3% 1.0% direct: 2.2% skip:58.8% L0:38.2% L1:49.4% BI:12.4%
x264 [info]: 8x8 transform intra:71.5% inter:66.4%
x264 [info]: direct mvs spatial:95.0% temporal:5.0%
x264 [info]: coded y,uvDC,uvAC intra: 69.2% 77.9% 40.1% inter: 12.2% 15.5% 0.9%
x264 [info]: i16 v,h,dc,p: 25% 17% 5% 53%
x264 [info]: i8 v,h,dc,ddl,ddr,vr,hd,vl,hu: 13% 13% 6% 8% 11% 12% 13% 11% 13%
x264 [info]: i4 v,h,dc,ddl,ddr,vr,hd,vl,hu: 17% 12% 4% 8% 13% 12% 13% 10% 12%
x264 [info]: i8c dc,h,v,p: 32% 29% 20% 19%
x264 [info]: Weighted P-Frames: Y:1.7% UV:0.5%
x264 [info]: ref P L0: 58.0% 13.5% 14.4% 4.2% 3.5% 2.5% 2.3% 1.5% 0.2% 0.0%
x264 [info]: ref B L0: 84.2% 8.7% 3.4% 1.5% 1.1% 0.7% 0.4%
x264 [info]: ref B L1: 96.1% 3.9%
x264 [info]: kb/s:1499.79
encoded 65970 frames, 29.99 fps, 1499.79 kb/s



   Похожие торренты   Торрент   Размер 
В этой теме нет новых непрочитанных сообщений. Теория Заговора. Постные Продукты [19.03] (2016) HDTVRip 720p

54 | 1

1.35 ГБ

В этой теме нет новых непрочитанных сообщений. Теория заговора. Постные продукты [Эфир 19.03] (2016) HDTVRip от GeneralFilm

404 | 16

629.61 МБ

В этой теме нет новых непрочитанных сообщений. Теория заговора. Постные продукты [Эфир 19.03] (2016) HDTV 1080i от GeneralFilm

85 | 2

2.29 ГБ

В этой теме нет новых непрочитанных сообщений. Теория заговора. Продукты жиросжигатели (Эфир от 09.07.2017) (Первый канал) [2017, документальный, телепередача, SATRip]

20 | 0

645.78 МБ

В этой теме нет новых непрочитанных сообщений. Теория заговора. Продукты, опасные для женщин (Эфир от 13.08.2017) (Первый канал) [2017, документальный, телепередача, SATRip]

33 | 0

743.2 МБ

В этой теме нет новых непрочитанных сообщений. Теория заговора. Продукты, которые разрушают организм (Эфир от 16.07.2017) (Первый канал) [2017, документальный, телепередача, SATRip]

21 | 4

641.51 МБ

В этой теме нет новых непрочитанных сообщений. Теория Заговора. Рыба [21.02] (2016) HDTVRip-AVC

83 | 7

593.26 МБ




Вы не можете начинать темы
Вы не можете отвечать на сообщения
Вы не можете редактировать свои сообщения
Вы не можете удалять свои сообщения
Вы не можете добавлять вложения

Перейти:  
Для Мосгорсуда, Роскомнадзора и рекламодателей: mosgorsud-torrent[собачка]yandex.ru
 Вход
ppkBB3cker v.2 © 2008-2014 @ PPK
[ Time : 0.022s | 16 Queries | GZIP : Off ]

Торрент трекер RUTOR.IN, Не можете зайти на rutor.org? Какой новый адрес рутор? Какое зеркало рутор? Не работает rutor.org и зеркала? Тогда наш торрент специально для вас. Rutor.in неофициальное зеркало rutor. В случае если у Вас заблокирован rutor или вдруг Вы не можете на него зайти, то Вы без труда сможете скачать бесплатно и без рекламы последние новинки кино, игр, сериалов и прочего у нас, на Rutor.in. Не нужно использовать прокси, чтобы зайти на рутор, достаточно воспользоваться нашим ресурсом. Все новые фильмы, игры, сериалы, книги и музыка за 2013 и 2014 годы через торрент бесплатно. Скачивайте фильмы в хорошем качестве, игры для пк, xbox, playstation без регистрации. У нас вы найдете новые Зарубежные сериалы и Русские сериалы 2013, 2014, 2015 годов. Оставайтесь с нами, качайте любимые фильмы, игры, сериалы, книги и музыку.
cron